<?xml version="1.0" standalone="no"?>
<!DOCTYPE svg PUBLIC "-//W3C//DTD SVG 1.1//EN" "http://www.w3.org/Graphics/SVG/1.1/DTD/svg11.dtd" >
<svg xmlns="http://www.w3.org/2000/svg">
<metadata>Generated by IcoMoon</metadata>
<defs>
<font id="ws_icons" horiz-adv-x="1024">
<font-face units-per-em="1024" ascent="960" descent="-64" />
<missing-glyph horiz-adv-x="1024" />
<glyph unicode="&#x20;" horiz-adv-x="512" d="" />
<glyph unicode="&#xe900;" glyph-name="add-car" d="M914.842 621.773h-86.938c-4.096 0-7.987-1.229-11.366-3.072l-39.219 118.067c-12.595 67.174-59.802 99.533-117.965 99.533h-368.538c-66.662 0-107.315-43.52-117.965-99.533l-39.424-118.374c-3.584 2.15-7.578 3.379-12.083 3.379h-86.938c-13.312 0-24.166-10.854-24.166-24.269v-21.094c0-13.312 10.854-24.166 24.166-24.166l32.87-5.632c-10.342-20.275-16.282-43.622-16.282-70.656l-12.186-139.366c0-3.994 0.205-8.090 0.717-12.288-0.512-2.458-0.717-5.12-0.717-7.885v-167.731c0-23.962 19.354-43.213 43.213-43.213h66.048c23.962 0 43.213 19.354 43.213 43.213v53.965h353.485c-12.595 0-131.174 344.678 337.818 344.269 9.933 0 32.256 5.53 32.256 5.53 13.312 0 24.166 10.854 24.166 24.166v21.094c0 13.21-10.854 24.064-24.166 24.064v0 0zM202.035 646.554l28.774 76.595 0.41 1.741c2.867 15.462 9.216 18.33 18.739 30.31h450.97c9.626-12.288 15.462-15.462 18.022-30.003l29.286-78.643 10.752-42.701c-2.355-31.232-40.038-55.91-71.27-55.91h-425.267c-31.232 0-68.813 24.678-71.27 55.91l10.854 42.701zM222.208 282.112c-36.147 0-65.434 29.286-65.434 65.434s29.286 65.434 65.434 65.434c36.147 0 65.434-29.286 65.434-65.434s-29.286-65.434-65.434-65.434v0 0zM514.253 330.342v0c0-10.752-5.837-19.456-13.107-19.456h-122.982c-7.27 0-13.107 8.704-13.107 19.456v54.682c0 10.752 5.837 19.456 13.107 19.456h122.982c7.27 0 13.107-8.704 13.107-19.456v-54.682zM743.731 599.654c-149.094 0-270.029-120.832-270.029-270.029 0-149.094 120.832-270.029 270.029-270.029s270.029 120.832 270.029 270.029c0 149.197-120.832 270.029-270.029 270.029v0zM777.318 162.509l-61.952-0.205-0.41 136.192-136.397-0.307-0.102 61.952 136.294 0.41-0.41 136.397 61.952 0.205 0.41-136.294 136.294 0.41 0.205-61.952-136.294-0.41 0.41-136.397z" />
<glyph unicode="&#xe901;" glyph-name="add-driver" d="M825.6 887.040v-62.72h-125.44v-62.73h125.44v-125.43h62.72v125.44h125.44v62.72h-125.44v125.44h-62.73v-62.72zM401.060 790.999c-58.020-8.233-110.346-34.888-139.551-71.148-13.128-16.466-18.616-26.849-25.088-46.449-4.7-14.899-5.294-19.599-5.294-43.121 0-21.955 0.983-31.56 6.072-56.842 3.533-16.66 6.277-31.754 6.277-33.516 0-2.161-2.355-3.727-6.666-4.506-3.533-0.788-7.844-2.744-9.605-4.7-17.050-18.821-9.216-71.741 14.5-97.413 4.116-4.506 13.916-20.777 21.76-36.454 32.532-63.898 65.853-102.113 106.424-121.518 23.521-11.366 37.437-14.51 63.703-14.305 26.655 0 41.165 3.328 64.287 14.705 40.571 19.794 75.653 60.57 107.213 123.679 6.666 13.722 15.872 29.010 20.388 34.099 24.105 27.249 31.754 78.203 14.5 97.219-1.761 1.956-6.072 3.922-9.605 4.7-8.038 1.567-8.038 0.788-1.761 33.126 10.783 56.248 10.783 82.125 0 112.896-6.861 19.794-15.288 33.321-30.771 49.193-25.876 26.46-66.642 47.626-108.39 56.443-22.139 4.495-68.987 6.656-88.392 3.912zM366.766 649.687c51.159-48.015 108.196-69.192 207.37-77.22l16.271-1.372-1.178-11.172c-0.983-9.216-8.233-50.964-11.756-68.792-0.594-2.744 1.956 1.372 5.683 9.011 10.977 22.927 22.149 27.249 29.788 11.561 7.444-15.872-1.178-48.015-17.449-65.659-3.523-3.727-14.899-24.105-25.088-45.076-27.238-55.665-49.592-83.302-78.991-97.802-31.754-15.677-78.797-15.872-111.524-0.584-30.577 14.5-51.159 39.782-80.558 99.369-11.756 23.716-22.733 43.51-26.266 46.848-9.605 9.216-16.466 27.238-17.439 45.67-0.788 15.677-0.788 16.271 4.905 21.955 9.8 9.605 16.271 5.294 27.044-17.838 6.072-12.933 6.072-12.544-0.195 19.988-3.922 19.794-5.489 35.082-6.072 61.153l-0.983 34.693 6.861 9.605c17.050 22.938 40.571 38.81 58.993 39.393 4.311 0.184 8.817-2.959 20.582-13.732zM403.026 220.252c-4.311-4.7-9.8-11.756-12.349-15.872l-4.506-7.444 6.072-12.155c3.328-6.666 11.96-19.016 19.016-27.249l12.739-15.094-18.821-44.493-18.616-44.687 8.233-10.783c4.7-5.878 15.288-15.872 23.521-22.149l15.288-11.561 11.366 8.622c14.305 11.172 36.26 34.499 35.082 37.437-0.584 1.178-9.021 21.361-18.821 44.687s-17.838 43.315-17.838 44.298 1.956 3.328 4.116 5.489c6.666 5.878 20.183 24.31 27.044 36.454l6.277 11.172-4.905 8.428c-2.744 4.7-7.844 11.756-11.561 15.872l-6.861 7.25h-46.848l-7.629-8.223zM281.702 193.987c-5.294-1.372-32.737-8.038-60.764-14.705-91.924-21.76-126.812-33.321-158.566-52.337-17.050-10.189-23.327-17.244-32.727-37.437-12.739-26.839-19.405-67.021-19.405-117.197v-26.071h846.725v26.071c0 63.109-10.588 109.763-31.16 137.789-10.977 15.094-52.326 35.482-98.98 48.804-13.128 3.727-47.432 12.544-76.636 19.405-29.010 6.861-57.815 13.722-63.703 15.288l-10.783 2.939v-26.655c0-30.966-1.178-34.888-22.149-71.731-28.027-49.193-64.287-91.136-98.591-113.879-10.383-6.861-19.794-12.544-20.972-12.544-1.372 0-6.861 2.744-12.544 6.277-40.96 24.699-78.203 67.031-111.329 126.218-16.855 30.188-20.183 42.138-19.21 70.369 0.195 12.349 0.584 22.538 0.584 22.344 0.010-0.010-4.301-1.382-9.789-2.949z" />
<glyph unicode="&#xe902;" glyph-name="add-drop" d="M414.208 448c0-11.264-9.523-20.787-20.787-20.787h-160.87v-160.87c0-11.264-9.011-20.378-20.378-20.378-11.264 0-20.787 9.011-20.787 20.378v160.87h-160.768c-11.264 0-20.378 9.523-20.378 20.787s9.011 20.378 20.378 20.378h160.87v160.768c0 11.264 9.523 20.787 20.787 20.787s20.378-9.523 20.378-20.787v-160.87h160.87c11.162 0.102 20.685-9.011 20.685-20.275zM1013.76 505.344l-114.79-114.688-115.2 114.688h229.99z" />
<glyph unicode="&#xe903;" glyph-name="add-file" d="M177.49 740.69v-209.070h250.88v-167.25h167.26v-334.5h-167.26v-83.63h585.39v585.38h-418.13v418.14h-418.14v-209.070zM679.25 756.378v-141.117h284.846l-141.107 141.117c-77.353 77.875-141.64 141.117-142.172 141.117-1.044 0-1.567-63.242-1.567-141.117zM177.49 364.37v-83.63h-167.25v-167.25h167.26v-167.25h167.25v167.26h167.25v167.26h-167.26v167.26h-167.25v-83.651z" />
<glyph unicode="&#xe904;" glyph-name="add-folder" d="M43.377 886.467c-5.816-2.611-13.844-8.827-18.463-14.049-15.862-18.063-14.653 10.435-14.653-352.43 0-359.854-1.004-334.367 13.251-351.027 4.014-4.618 11.438-10.639 16.456-13.844l9.431-5.417 437.125-1.004 4.813 4.413c6.625 6.226 6.42 18.063-0.604 23.48-5.417 4.219-5.816 4.219-220.764 4.219h-215.347l-11.244 9.626v659.098l11.244 9.626h280.781l210.135-106.373h423.875l11.244-9.626 1.004-157.348c0.604-86.303 1.608-158.147 2.406-159.355s4.219-3.41 7.629-4.813c7.629-3.215 16.456 0 19.866 7.219 1.608 3.615 2.212 48.374 2.212 157.143 0 169.994 0.604 162.765-14.254 179.63-4.413 4.813-12.646 11.244-18.268 14.049l-10.435 5.222h-416.655l-212.541 106.373h-288.205l-10.035-4.813zM727.962 480.645c-84.9-15.258-155.546-76.268-182.641-157.348-9.226-27.894-12.042-46.961-12.042-79.278 0-67.43 22.876-123.628 69.038-169.994 81.48-81.48 213.34-92.518 309.883-25.692 18.463 12.646 47.36 42.342 60.006 61.614 18.862 28.498 32.717 64.625 37.734 99.348 3.41 22.876 1.208 70.246-4.014 91.924-23.48 95.13-95.939 162.765-192.266 179.63-21.473 3.809-64.42 3.615-85.699-0.205zM811.858 450.55c42.547-8.028 79.677-28.897 111.79-62.423 25.293-26.491 40.346-52.183 51.384-88.31 5.018-16.456 5.417-20.070 5.417-54.794 0-43.151-2.611-55.593-17.859-87.706-39.352-83.282-128.256-133.059-216.566-121.211-45.158 6.021-84.695 25.692-119.009 59.003-44.759 43.356-67.43 100.147-64.225 159.754 4.219 77.066 49.572 144.302 120.617 178.821 41.144 20.070 82.289 25.487 128.451 16.865zM762.081 395.356l-5.212-4.014v-130.253h-64.031c-60.611 0-64.225-0.205-69.038-4.014-2.611-2.212-5.622-6.226-6.226-9.032-1.403-5.827 3.011-15.852 7.823-17.859 1.802-0.604 32.113-1.208 67.43-1.208h64.020v-64.020c0-35.328 0.604-65.628 1.198-67.43 2.007-4.813 12.042-9.226 17.859-7.823 2.806 0.604 6.82 3.615 9.032 6.226 3.809 4.813 4.014 8.428 4.014 69.038v64.020h128.666l4.813 5.018c8.028 7.823 6.42 19.261-3.205 24.084-4.618 2.406-17.265 3.011-68.035 3.011h-62.218v62.218c0 50.78-0.604 63.416-3.011 68.035-4.813 9.216-14.848 11.028-23.88 4.004z" />
<glyph unicode="&#xe905;" glyph-name="add-gur" d="M873.779 179.61h-97.997v97.997c0 4.71-4.71 9.318-9.318 9.318-4.71 0-9.318-4.71-9.318-9.318v-97.997h-97.997c-4.71 0-9.318-4.71-9.318-9.318s4.71-9.318 9.318-9.318h97.997v-97.997c0-4.71 4.71-9.318 9.318-9.318 4.71 0 9.318 4.71 9.318 9.318v97.997h97.997c4.71 0 9.318 4.71 9.318 9.318s-4.71 9.318-9.318 9.318zM761.754 385.024c-121.344 0-219.341-97.997-219.341-219.341s97.894-219.443 219.341-219.443 219.341 97.997 219.341 219.341-97.997 219.443-219.341 219.443zM761.754-30.413c-112.026 0-200.704 88.678-200.704 200.704s88.678 200.704 200.704 200.704 200.704-88.678 200.704-200.704c0-112.026-88.678-200.704-200.704-200.704zM42.906 949.76v-910.131h550.81c-4.71 9.318-14.029 18.637-18.637 27.955h-504.115v858.829h46.694v-214.733c0-9.318 9.318-14.029 18.637-9.318l70.042 74.65 65.331-65.331c4.71-4.71 18.637 0 18.637 9.318v205.414h485.376v-546.099c9.318 0 18.637 0 27.955-4.71v574.157h-760.73zM266.957 753.766l-60.723 60.723-60.621-65.434v177.357h121.344v-172.646zM710.349 613.683h-569.446c-9.318 0-14.029-4.71-14.029-14.029v0c0-4.71 4.71-14.029 14.029-14.029h569.446c4.71 0 14.029 4.71 14.029 14.029v0c0 9.421-9.318 14.029-14.029 14.029zM710.349 543.642h-569.446c-4.71 0-14.029-4.71-14.029-14.029v0c0-4.71 4.71-14.029 14.029-14.029h569.446c4.71 0 14.029 4.71 14.029 14.029v0c0 9.421-9.318 14.029-14.029 14.029zM710.349 473.702h-569.446c-4.71 0-14.029-4.71-14.029-14.029v0c0-4.71 4.71-14.029 14.029-14.029h569.446c4.71 0 14.029 4.71 14.029 14.029v0c0 4.71-9.318 14.029-14.029 14.029zM420.966 398.95h-280.064c-9.318 0-14.029-4.71-14.029-14.029s4.71-14.029 14.029-14.029h284.672c9.318 0 14.029 4.71 14.029 14.029 0 9.421-9.318 14.029-18.637 14.029zM420.966 329.011h-280.064c-9.318 0-14.029-4.71-14.029-14.029s4.71-14.029 14.029-14.029h284.672c9.318 0 14.029 4.71 14.029 14.029s-9.318 14.029-18.637 14.029zM420.966 258.97h-280.064c-9.318 0-14.029-4.71-14.029-14.029s4.71-14.029 14.029-14.029h284.672c9.318 0 14.029 4.71 14.029 14.029-4.608 9.318-9.318 14.029-18.637 14.029z" />
<glyph unicode="&#xe906;" glyph-name="add-item" d="M849.92 876.134c-90.522 0-163.84-73.318-163.84-163.84s73.318-163.84 163.84-163.84 163.84 73.318 163.84 163.84-73.318 163.84-163.84 163.84zM849.92 585.933c-69.734 0-126.259 56.525-126.259 126.259s56.525 126.259 126.259 126.259c69.734 0 126.259-56.525 126.259-126.259 0-69.632-56.525-126.259-126.259-126.259zM360.858 588.083c0-12.493 6.246-25.088 18.739-18.739h317.542c-10.65 11.366-20.070 23.962-28.058 37.581h-289.382c-12.595 0-18.842-6.246-18.842-18.842zM360.858 725.811h280.371c0.819 12.902 2.765 25.395 5.837 37.581h-286.208c-6.246 0-18.739-6.246-18.739-18.739s6.246-18.842 18.739-18.842zM918.118 256.307c12.493 0 18.739 6.246 18.739 18.739s-6.246 18.739-18.739 18.739h-544.768l-33.485 124.518c3.072-3.584 7.987-5.427 14.746-5.427h563.507c12.493 0 18.739 6.246 18.739 18.739 0 6.246 0 6.246-6.246 12.493l24.064 87.142c-12.186-7.066-25.19-12.902-38.707-17.51l-16.691-63.386h-538.419c-12.288 0-18.637-6.042-24.781-18.227l-112.947 418.918c-6.246 12.493-12.493 12.493-25.088 12.493 0 6.246-6.246 12.493-12.493 12.493h-156.57c-12.493 0.102-18.739-6.144-18.739-18.739 0-12.493 6.246-18.739 18.739-18.739h156.467l150.221-557.261v-6.246c0-12.493 6.246-18.739 18.739-18.739h563.712zM868.045 214.016c-56.32 0-100.147-37.581-100.147-93.901 0-50.074 37.581-93.901 100.147-100.147 50.074 0 93.901 43.827 93.901 100.147 0 50.074-37.581 93.901-93.901 93.901zM861.798 69.939c-31.334 0-56.32 25.088-56.32 56.32 0 31.334 25.088 56.32 56.32 56.32 31.334 0 56.32-25.088 56.32-56.32s-25.088-56.32-56.32-56.32zM436.019 214.016c-50.074 0-93.901-37.581-93.901-93.901s43.827-100.147 93.901-100.147c50.074 0 93.901 43.827 93.901 100.147s-43.827 93.901-93.901 93.901zM436.019 63.693c-31.334 0-56.32 25.088-56.32 56.32 0 31.334 25.088 56.32 56.32 56.32s56.32-25.088 56.32-56.32c0-31.232-24.986-56.32-56.32-56.32zM932.352 731.034h-65.331l0.102 63.078c0 0.102 0 0.102 0 0.102v1.024h-0.102c-0.717 8.909-8.192 16.077-17.306 16.077-9.011 0.102-16.486-6.963-17.101-15.872h-0.102v-64.512h-65.331c-9.421 0.102-17.101-7.68-16.998-17.203 0.102-9.421 7.782-17.203 17.203-17.203l65.126 0.102v-66.355c0.102-9.421 7.782-17.203 17.203-17.203 9.421-0.102 17.101 7.578 16.998 16.998l0.102 66.662 65.638 0.102c9.421-0.102 17.101 7.578 16.998 16.998 0 9.421-7.68 17.101-17.101 17.203v0z" />
<glyph unicode="&#xe907;" glyph-name="add-item2" d="M759.224 943.145c-57.446-9.216-112.937-44.503-146.657-93.522-37.642-54.702-47.647-129.997-25.682-193.915 26.276-76.861 94.31-133.724 174.305-145.879 45.292-6.861 87.45-0.584 128.43 19.415 74.506 36.465 119.992 106.076 123.914 189.399 6.267 136.858-117.453 246.067-254.31 224.502zM829.809 864.717c10.588-5.489 11.766-10.588 11.766-52.941v-38.236h38.431c55.101 0 53.524 1.178 53.719-46.080 0-48.425 0.584-48.036-54.702-48.036h-37.253l-1.167-80.773-6.472-5.683-6.277-5.683h-67.052l-13.332 13.332v78.623l-80.384 1.167-5.294 5.489c-5.489 5.294-5.489 5.683-6.472 37.253-1.761 51.374-2.55 50.391 52.347 50.391h39.803v38.042c0 20.982 0.788 40.387 1.956 43.131 0.983 2.744 4.71 6.861 8.233 9.021 5.683 3.533 9.994 3.922 36.465 3.922 22.948 0 31.375-0.788 35.686-2.939zM10.24 734.331v-31.375h136.264l219.607-501.944h522.527v62.751h-481.352l-219.607 501.934h-177.439v-31.365zM326.892 632.955c1.567-4.116 29.798-74.506 62.546-156.467l59.607-149.012h439.972l35.092 88.033c19.415 48.23 34.898 88.228 34.509 88.822-0.584 0.389-7.055-3.133-14.316-7.844-95.468-61.563-218.993-58.614-311.736 7.649-41.37 29.409-78.623 75.878-97.055 120.781l-6.472 15.288h-205.087l2.939-7.25zM457.472 135.137c-49.603-13.332-80.384-64.901-67.84-113.521 13.138-50.196 64.512-81.367 113.725-68.628 50.196 13.138 81.367 64.512 68.628 113.326-13.138 50.78-65.3 82.156-114.514 68.823zM771.185 135.137c-49.603-13.332-80.384-64.901-67.84-113.521 13.138-50.196 64.512-81.367 113.725-68.628 50.196 13.138 81.367 64.512 68.628 113.326-13.138 50.78-65.3 82.156-114.514 68.823z" />
<glyph unicode="&#xe908;" glyph-name="add-per" d="M467.702 947.794c-19.077-2.806-48.384-11.244-64.051-18.473-21.688-10.035-36.741-20.275-53.402-36.342-17.265-16.865-27.904-31.724-38.554-54.211-15.063-32.328-19.876-61.030-19.876-121.866v-37.14l-6.021-5.827c-11.039-10.445-14.858-24.494-14.653-54.211 0-22.487 0.799-28.508 5.222-43.766 9.032-29.317 26.706-61.44 46.377-83.528 6.021-6.83 10.24-14.254 13.251-23.695 6.625-20.081 21.279-47.38 35.338-66.253l12.452-16.261-32.532-16.046c-17.664-8.837-47.186-22.487-65.454-30.116-18.268-7.834-48.384-20.48-66.857-28.314-66.058-27.904-83.722-38.953-105.411-65.249-25.098-30.116-44.575-66.857-59.433-111.831-11.448-33.925-17.265-62.843-18.668-91.351-1.608-31.519-2.406-30.72 38.748-44.974 77.496-26.706 185.313-43.162 332.083-50.391 65.454-3.215 233.697-1.608 241.93 2.406 8.837 4.219 11.848 11.848 8.233 20.879-1.608 3.82-4.219 7.025-5.622 7.229s-60.037 0.399-130.099 0.604c-124.477 0.399-141.548 1.004-218.839 8.233-87.542 8.233-172.861 24.699-221.655 42.762l-13.855 5.018 1.403 14.858c3.011 37.345 17.664 88.136 35.338 123.474 13.65 27.105 27.709 46.981 45.179 63.642 17.469 16.671 27.505 21.688 115.446 58.624 32.522 13.65 78.705 34.529 102.39 46.182l42.967 21.484 11.244-7.629c22.088-14.858 44.769-23.89 71.27-28.314 37.949-6.021 72.684 3.82 113.644 32.727 2.406 1.608 9.032-1.004 31.918-13.455 33.126-17.664 38.748-19.272 46.776-13.046 4.219 3.41 5.417 6.021 5.417 11.848 0 9.636-1.208 10.639-31.119 26.307-13.251 7.025-24.494 12.851-24.893 13.251s3.82 5.827 9.441 12.247c21.678 25.098 41.155 60.027 52.797 94.566 4.219 12.452 8.028 19.272 14.858 26.9 19.476 21.678 37.54 56.822 45.578 88.34 3.215 13.046 3.809 20.879 3.215 40.55-0.799 27.709-5.018 40.356-16.067 49.592l-6.226 5.222-1.403 47.985c-1.608 50.995-3.011 59.023-12.851 75.694-2.806 4.823-8.233 12.646-12.247 17.265-3.82 4.823-7.025 10.035-7.025 11.848 0 2.007-2.611 8.837-5.827 15.462-19.272 40.755-62.444 66.458-127.693 76.298-21.873 3.205-81.91 3.799-102.185 0.788zM568.893 914.872c37.14-5.622 62.444-16.067 81.715-33.935 12.452-11.448 22.692-28.713 22.692-38.748 0.205-7.229 3.41-12.646 12.247-20.48 4.219-3.41 9.441-10.639 12.042-15.862 4.219-8.837 4.618-13.251 6.226-66.652 1.802-64.85 2.212-66.662 16.66-67.86l7.424-0.604-0.809-28.508c-0.799-25.303-1.608-30.321-7.025-44.974-7.629-21.084-22.088-44.974-37.14-61.635-9.841-10.844-12.452-15.462-15.657-26.706-18.668-67.256-65.454-124.682-118.057-144.753-11.848-4.618-16.466-5.222-37.54-5.222-21.084 0-26.102 0.809-40.151 5.622-49.388 17.070-85.934 57.016-105.605 116.050-5.222 15.258-8.233 20.675-17.664 31.519-30.72 34.939-43.971 66.058-45.773 106.813-1.208 25.702 0.399 31.928 8.438 31.928 2.611 0 6.42 2.212 8.632 5.018 3.615 4.618 4.014 9.441 5.018 63.642 1.208 62.843 2.212 71.27 12.851 97.577 8.837 22.088 18.473 36.741 35.533 53.606 23.491 23.286 51.804 36.946 90.552 43.971 21.668 3.809 80.691 4.004 105.39 0.195zM771.871 325.601c-35.338-7.424-70.472-26.102-93.757-49.787-38.144-38.748-57.825-96.369-51.2-150.579 9.431-77.302 59.628-135.117 134.717-155.197 24.494-6.625 67.86-6.625 92.355-0.205 35.533 9.441 72.684 32.522 93.164 57.62 28.713 35.338 41.964 72.878 41.964 119.46 0 30.321-4.813 52.398-16.66 77.701-22.487 47.985-60.631 80.916-111.831 96.174-15.063 4.618-22.088 5.417-48.783 6.021-17.080 0.399-35.144-0.205-39.967-1.208zM845.558 293.274c58.829-15.657 103.598-66.253 112.835-127.293 15.462-101.192-84.122-191.539-184.31-167.649-29.921 7.229-54.61 21.883-76.892 45.773-55.818 59.832-55.419 146.565 0.799 205.793 39.352 41.574 94.362 57.641 147.569 43.377zM796.774 260.352l-5.018-4.823v-92.559h-45.978c-44.974 0-46.182-0.195-51.2-4.413-7.229-6.625-7.834-17.070-1.208-23.695 3.82-3.809 6.625-4.014 51.2-4.014h47.186v-46.572c0.205-48.988 0.399-50.79 9.441-55.409 6.83-3.615 10.445-2.816 16.865 3.41l5.827 5.827v92.754h46.776c46.377 0 46.981 0 51.2 4.618 5.827 6.226 5.827 17.469 0.205 22.692-3.82 3.41-8.233 3.809-51.2 4.413l-46.981 0.604v92.365l-5.018 4.823c-3.011 3.215-7.229 5.018-11.039 5.018-3.84-0.020-8.049-1.823-11.059-5.038z" />
<glyph unicode="&#xe909;" glyph-name="add-pic" d="M945.254 244.326v62.976h-68.506v-62.976h-62.976v-70.349h62.976v-64.819h68.506v64.819h68.506v70.349h-68.506zM306.483 186.982c-1.843 1.843-3.686 9.216-3.686 13.005v501.76c0 3.686 0 13.005 13.005 13.005h561.050v-363.008h70.349v361.062c1.843 9.216 1.843 31.437-14.848 49.971-9.216 11.059-25.907 24.064-57.446 24.064h-561.050c-5.53 0-38.912-1.843-61.133-27.75-9.216-11.059-22.221-29.594-20.378-57.446v-22.221l-138.752-68.506c-22.221-14.848-46.285-46.285-35.226-81.51l25.907-44.442-62.976-83.354-1.843-5.53c-9.216-24.064-18.534-66.662 9.216-88.883l205.517-122.163c1.843-13.005 7.373-29.594 20.378-44.442 11.059-11.059 31.437-25.907 62.976-25.907 1.843 0 3.686 0 5.53 0h468.48v70.349h-470.221c-7.475-1.843-13.005 0-14.848 1.946zM130.56 551.731l101.786 49.971v-236.954l-107.315 181.35c1.843 1.843 3.686 3.686 5.53 5.632zM82.432 368.435l38.912 49.971 77.722-131.482-116.634 70.349c-1.843 1.843 0 7.373 0 11.162zM399.053 546.099c0-48.026 38.912-87.040 87.040-87.040 48.026 0 87.040 38.912 87.040 87.040 0 48.026-38.912 87.040-87.040 87.040-48.026 0-87.040-38.912-87.040-87.040zM832.307 348.058v148.070c-9.216 14.848-33.28 16.691-33.28 16.691-44.442 25.907-151.859-170.394-151.859-170.394-16.691-27.75-38.912-11.059-38.912-11.059-44.442 49.971-144.384 44.442-144.384 44.442-131.482-9.216-131.482-155.546-131.482-155.546h392.499c-3.686 40.755 68.506 64.819 68.506 64.819 1.843 48.128 38.912 62.976 38.912 62.976z" />
<glyph unicode="&#xe90a;" glyph-name="add-user" d="M73.626 74.342c0 23.757 18.534 31.642 26.419 36.966l274.637 129.434c18.534 7.885 34.304 29.082 36.966 50.176s-5.325 42.291-23.757 55.501c-66.048 52.838-95.027 166.4-95.027 229.786v155.648c0 66.048 113.562 155.853 219.238 155.853s219.238-89.805 219.238-155.853v-155.853c0-60.723-23.757-176.947-92.467-229.786-15.872-13.21-26.419-34.304-23.757-55.501 2.662-21.094 15.872-39.629 36.966-50.176l95.027-44.851 15.872 63.386-84.48 39.629c87.142 68.71 116.224 203.366 116.224 277.299v155.853c-0.205 103.014-145.408 219.238-282.726 219.238-139.981 0-282.522-116.224-282.522-219.238v-155.853c0-68.71 31.642-206.029 118.886-277.299l-274.739-131.994c0 0-63.386-29.082-63.386-63.386v-95.027c0-31.642 29.082-60.723 63.386-60.723h689.254v63.386h-689.254v63.386zM982.118 135.066h-95.027v95.027c0 18.534-13.21 31.642-31.642 31.642s-31.642-13.21-31.642-31.642v-95.027h-95.027c-18.534 0-31.642-13.21-31.642-31.642s13.21-31.642 31.642-31.642h95.027v-95.027c0-18.534 13.21-31.642 31.642-31.642s31.642 13.21 31.642 31.642v95.027h95.027c18.534 0 31.642 13.21 31.642 31.642s-13.21 31.642-31.642 31.642z" />
<glyph unicode="&#xe90b;" glyph-name="add-user3" d="M388.076 944.814c-29.594-2.744-63.498-11.366-82.115-20.777-37.427-18.811-65.649-49.971-78.787-86.231-8.817-24.3-10.977-37.827-11.95-74.076-0.983-37.827 0.983-60.559 8.817-97.987l3.533-16.66-5.878-10.578c-15.094-27.238-4.506-80.742 20.183-102.492 8.428-7.25 10.189-10.383 13.916-23.122 7.844-26.849 22.927-57.221 35.666-71.721l6.072-6.861-1.372-33.71c-1.372-30.577-1.956-34.488-6.072-41.748-9.994-17.050-33.71-30.566-104.847-59.576-93.481-38.011-129.925-64.86-154.819-114.637-11.95-23.91-17.439-44.093-19.005-71.926l-1.178-21.166h501.893l-6.072 19.599-5.878 19.599h-446.638l1.372 6.277c4.895 22.927 17.838 45.855 35.471 63.304 23.521 23.122 49.777 37.632 115.825 64.276 82.115 33.311 107.192 50.166 124.242 83.681 4.116 8.233 4.506 11.561 5.294 57.815l0.788 48.988-7.844 6.461c-14.889 11.756-32.532 48.21-37.632 77.015-4.116 24.3-3.328 22.733-12.544 24.105-4.7 0.788-9.994 2.939-11.756 4.895-4.506 5.1-10.189 20.777-11.756 32.532-1.761 12.544 0.983 19.794 9.994 27.832l7.25 6.072-6.267 29.204c-9.994 45.855-11.172 56.044-10.977 93.676 0.195 32.338 0.584 36.649 5.489 52.521 7.844 26.061 15.483 39.782 31.355 55.265 26.655 26.655 58.993 38.021 110.92 39.588 45.271 1.372 68.782-5.489 82.115-23.91 5.1-7.055 7.25-8.622 14.889-9.8 20.378-2.939 37.827-11.561 49.582-24.494 29.788-33.116 32.922-105.042 8.038-189.901l-6.072-20.572 8.038-7.639c4.506-4.116 8.622-9.8 9.216-12.544 2.345-8.817-0.983-28.611-6.666-39.782-4.895-10.189-5.878-10.977-14.889-12.739l-9.8-2.161-3.338-18.422c-6.267-34.099-18.616-61.932-34.877-77.998l-10.578-10.588 1.966-97.198 7.639-14.111c6.861-12.739 23.716-31.355 28.416-31.355 1.761 0 23.316 27.832 23.316 30.177 0 0.788-2.744 3.727-5.878 6.472-12.155 10.189-13.722 16.261-13.722 54.477v34.294l7.055 9.216c9.8 12.739 25.283 45.076 30.761 64.666 3.922 14.111 5.489 17.050 14.5 25.477 6.666 6.072 12.145 13.916 16.067 22.149 5.878 12.933 11.96 37.827 11.96 49.388 0 9.605-5.294 28.611-9.605 34.683-3.727 5.1-3.727 5.489 0.778 24.105 9.411 38.994 11.561 56.044 11.756 92.692 0 37.827-2.355 53.309-11.561 77.015-13.527 34.294-41.155 59.771-76.042 69.96-7.25 1.956-13.916 5.878-19.599 10.783-19.794 18.227-47.421 27.238-85.832 28.416-13.517 0.195-28.017 0.195-32.328-0.195zM756.511 431.36c-87.603-8.038-160.502-57.221-198.912-134.042-16.456-32.727-24.105-66.826-24.105-106.803 0.195-64.082 22.733-120.136 66.826-165.796 53.893-56.248 130.519-82.504 207.145-71.332 55.071 8.038 95.242 28.416 135.414 68.393 39.977 40.172 60.365 80.353 68.393 135.414 18.227 125.030-65.649 244.767-188.918 269.271-19.005 3.922-51.343 6.267-65.843 4.895zM821.576 385.7c35.666-9.411 64.471-25.283 91.126-50.76 25.088-23.91 43.11-54.088 53.699-89.559 7.055-23.716 8.817-66.632 3.727-91.32-8.038-40.376-23.716-70.748-50.954-99.553-30.771-32.532-64.471-51.149-108.575-59.965-24.689-5.089-67.615-3.328-91.32 3.727-35.471 10.578-65.649 28.611-89.559 53.699-25.283 26.655-41.155 54.876-50.954 91.126-3.523 13.322-4.311 21.361-4.311 47.421-0.195 39.782 3.717 56.443 20.378 90.153 19.2 38.799 47.421 67.809 84.070 86.815 23.521 12.155 31.939 15.288 54.088 19.988 23.91 5.284 65.26 4.506 88.586-1.772zM753.572 261.059v-49.971h-99.942v-39.199h99.942v-101.908h39.199l0.389 50.565 0.584 50.371 50.565 0.584 50.36 0.389v39.199h-101.908v99.942h-39.199v-49.971z" />
<glyph unicode="&#xe90c;" glyph-name="add-web" d="M464.998 947.579c-95.068-9.021-183.675-43.909-261.294-103.107-22.743-17.449-63.314-57.037-81.541-79.585-52.736-65.27-89.979-146.627-104.878-228.751-11.366-62.925-8.817-143.493 6.472-206.807 43.315-178.575 183.869-320.881 362.045-366.551 45.281-11.766 75.858-15.288 126.239-15.094 24.31 0 46.848 0.788 50.381 1.761l6.277 1.567-13.527 11.366c-22.344 18.821-54.098 57.047-64.881 78.019-3.533 6.861-4.116 7.25-16.855 8.428-18.227 1.761-53.709 8.233-69.192 12.349-11.172 3.133-13.138 4.506-17.050 11.366-19.405 34.109-55.47 140.349-49.203 144.466 8.038 5.1 64.881 19.599 93.696 23.716 21.166 2.939 18.422-0.389 25.487 30.577 2.355 9.994 4.7 19.405 5.294 20.777 0.983 2.939-1.178 2.744-37.632-2.161-23.327-3.133-69.386-13.722-87.624-20.193-6.277-2.161-11.561-3.328-12.155-2.55-3.328 5.683-12.544 85.852-14.111 125.45l-1.372 29.798h176.998v-73.513l7.055 11.766c8.038 13.332 29.204 40.776 36.854 47.831 2.744 2.744 5.1 6.861 5.1 9.411 0 3.328 1.178 4.506 4.116 4.506 2.355 0 9.8 5.294 17.050 11.96 10.977 9.8 29.604 23.327 50.575 36.465 2.939 1.761-3.922 2.355-33.915 2.355l-37.827 0.195v125.256l8.428 0.983c53.125 5.878 68.219 8.038 87.624 12.349 12.349 2.744 32.143 7.844 43.715 11.366 14.316 4.311 21.565 5.683 21.955 4.116 3.328-9.994 12.739-91.74 12.739-110.162v-10.967l6.072 1.178c3.533 0.584 14.899 1.761 25.682 2.55l19.21 1.178-0.983 12.933c-3.922 44.298-11.766 104.673-15.872 120.945-0.983 3.922 0.778 5.489 16.466 13.332 9.605 4.905 27.443 15.483 39.793 23.716 12.155 8.038 23.327 14.305 24.504 13.916 4.506-1.761 34.304-48.814 45.865-72.53 19.988-40.581 35.482-94.874 38.615-134.666l1.178-15.094 20.777-13.722c23.91-15.882 51.548-39.793 65.864-57.047 5.489-6.472 10.383-11.96 10.977-11.96 1.966 0 3.727 27.832 3.727 57.825 0 176.415-91.74 338.135-243.651 429.681-89.211 53.719-199.578 78.807-303.268 69.007zM486.564 748.616v-99.185l-16.077 1.372c-25.088 1.956-55.47 6.666-78.019 11.96-23.716 5.489-56.842 16.077-56.842 18.227 0 0.788 2.939 11.96 6.666 24.699 12.933 44.687 29.399 88.801 42.926 113.695 5.489 10.394 7.25 11.96 15.094 14.305 21.565 6.277 60.959 13.332 78.991 13.916l7.25 0.195v-99.185zM568.893 844.861c11.366-1.567 29.993-5.294 41.554-8.038l20.777-5.294 9.8-20.777c15.882-33.516 31.949-77.824 40.581-111.923 1.761-7.055 3.523-14.305 4.116-16.077 2.355-8.038-77.619-27.054-134.861-31.949l-15.288-1.372v198.369h6.472c3.318 0 15.473-1.372 26.849-2.939zM311.122 770.57c-5.878-16.466-12.933-38.81-15.677-49.398-2.939-10.588-5.683-19.794-6.072-20.193-0.983-0.983-25.283 12.544-42.537 24.105l-15.483 9.994 12.349 11.366c6.861 6.277 19.016 16.466 26.849 22.344 15.094 11.366 47.043 31.949 49.592 31.949 0.778 0.020-3.338-13.507-9.021-30.167zM721.592 789.197c25.876-16.077 66.847-48.609 66.847-53.32 0-3.533-53.903-37.048-55.869-34.693-0.195 0.389-3.727 12.155-7.844 26.071-6.072 21.371-17.644 55.869-23.716 70.369-1.966 5.1 0.584 3.922 20.582-8.428zM210.76 689.418c12.155-9.021 46.459-29.798 59.003-36.065 6.277-2.939 8.817-5.294 8.038-7.444-4.7-15.094-14.51-98.796-17.644-151.327l-1.372-21.166h-147.804l1.567 16.077c4.506 47.237 18.033 93.112 40.182 137.8 15.288 30.577 40.97 69.591 45.865 69.591 1.188-0.010 6.482-3.348 12.165-7.465zM371.108 616.499c28.027-7.055 64.686-13.138 88.596-14.705 9.994-0.788 19.999-1.567 22.538-2.161l4.311-0.788v-125.44h-176.998l1.178 29.399c1.761 38.031 10.977 120.556 14.305 125.85 0.389 0.788 5.878-0.389 12.155-2.55 6.072-2.15 21.371-6.472 33.915-9.605zM260.157 401.469c3.133-52.531 12.933-136.428 17.644-151.521 0.584-2.161-3.922-5.294-15.677-11.366-9.216-4.71-27.443-15.677-40.581-24.31l-23.91-15.872-4.506 5.683c-9.994 12.155-28.621 41.748-39.004 61.942-22.743 44.698-36.854 92.518-41.554 140.349l-1.567 16.077h147.804l1.352-20.982zM293.089 182.907c4.116-16.466 20.193-66.058 25.088-77.425 2.161-4.905 3.533-9.411 2.939-9.8-2.744-2.744-58.419 35.871-78.408 54.497l-11.561 10.783 15.483 9.994c21.371 13.916 38.615 23.91 41.165 24.115 1.178-0.010 3.727-5.499 5.294-12.165zM731.587 445.962c-108.595-15.288-195.83-98.601-214.641-204.841-4.116-22.938-4.116-65.075 0-88.207 16.855-95.263 89.774-174.264 183.859-198.769 47.636-12.349 102.134-9.994 148.388 6.666 83.118 30.188 146.422 105.267 161.72 191.908 3.922 22.743 3.727 63.898-0.195 87.624-3.533 20.193-13.527 50.964-22.344 68.413-16.466 32.543-46.070 67.82-75.469 89.774-26.46 19.794-66.058 37.243-100.956 44.493-17.633 3.727-62.72 5.294-80.364 2.939zM783.729 368.538c8.817-3.533 19.988-14.111 24.893-23.327 3.922-7.444 4.311-11.172 4.905-52.531l0.594-44.687h38.031c20.972 0 42.537-0.983 48.026-2.161 12.544-2.744 24.504-11.766 32.338-24.31 5.294-8.428 5.878-11.172 5.878-24.31-0.195-17.449-4.311-27.054-15.872-37.437-13.527-11.96-17.060-12.544-64.891-13.332l-43.52-0.788-0.594-44.298c-0.584-44.493-0.584-44.493-5.878-53.514-10.189-17.449-24.3-25.682-43.909-25.876-14.899-0.195-27.249 5.489-37.642 17.244-10.977 12.544-12.155 18.432-12.155 65.28v41.165l-43.52 0.788c-48.22 0.778-51.354 1.372-65.27 13.527-21.565 19.016-21.955 53.514-0.788 73.708 12.739 12.155 17.838 13.128 66.058 13.916l43.52 0.788v42.342c0 40.376 0.195 42.926 4.7 52.337 7.055 15.483 18.821 24.699 37.437 29.204 5.509 1.167 20.408-0.594 27.658-3.727z" />
<glyph unicode="&#xe90d;" glyph-name="agree" d="M419.369 944.169c-36.905-6.287-51.036-10.998-64.389-21.402-17.664-13.937-26.112-27.095-29.45-45.353-1.966-10.793-0.983-22.18 6.277-66.744 1.772-10.209 3.144-20.019 3.144-21.596 0-1.772-6.083-6.287-14.131-10.793-20.808-11.192-51.436-32-68.71-46.92l-15.114-12.954-32 18.063c-35.922 20.419-47.114 24.934-61.645 25.129-23.357 0-51.436-14.725-65.956-34.55-3.727-5.304-14.131-21.985-22.774-37.304-20.808-36.321-26.307-55.757-22.18-78.326 5.11-27.873 16.691-40.438 58.501-63.406 16.097-8.837 31.017-17.275 32.778-18.647 2.949-2.161 2.949-4.127-0.983-25.917-2.949-17.080-4.321-33.372-4.71-59.679l-0.389-36.116-37.11-14.92c-40.049-16.097-48.486-21.207-57.518-34.949-9.615-14.531-12.954-26.696-12.759-47.708 0-18.452 0.195-19.046 14.131-53.985 7.66-19.436 17.080-39.854 20.808-45.353 12.954-19.036 31.805-31.805 53.596-36.116 16.097-3.144 24.146-1.178 65.372 15.503l33.567 13.742 27.873-28.068c15.309-15.503 35.338-33.761 44.564-40.438s16.886-12.37 17.275-12.759-4.321-16.886-10.209-36.71c-13.548-44.564-14.326-56.34-5.1-75.776 6.871-14.326 21.985-30.228 36.516-38.083 5.304-2.744 25.129-9.81 43.971-15.503 31.406-9.421 36.116-10.209 53.985-10.404 22.18 0 35.922 4.127 50.647 15.319 13.937 10.598 18.452 19.436 30.628 59.29l11.192 37.1 24.535 1.372c27.679 1.372 53.402 5.304 80.097 12.564 10.209 2.55 19.046 4.127 19.63 3.144 20.019-29.45 43.192-60.467 49.469-65.966 11.387-9.615 24.934-13.937 43.971-13.937 23.757 0 34.355 4.321 71.26 29.051 49.080 33.178 63.017 51.046 64.778 83.436 1.178 21.402-0.788 26.112-26.89 63.212l-21.197 30.423 3.727 4.905c19.436 25.324 44.175 68.321 55.163 95.601l3.144 8.243 13.353-0.983c67.144-4.905 73.615-4.516 90.501 5.499 17.869 10.793 32.389 32.195 37.294 55.552 1.178 5.499 3.144 25.324 4.321 44.564 2.161 30.628 2.161 36.311-0.788 49.080-5.499 24.934-20.613 45.343-40.049 54.579-7.465 3.533-15.708 4.905-42.598 7.066-18.258 1.372-36.516 2.55-40.438 2.744h-7.066l-4.127 15.708c-6.676 24.74-17.469 52.224-30.228 76.37-11.387 21.791-11.581 22.374-8.049 26.307 1.966 2.355 12.954 14.531 24.34 26.9 25.917 28.273 28.467 32 32.389 47.309 5.11 19.63 0.389 42.209-12.954 62.034-11.776 17.859-60.068 60.262-78.52 69.1-14.131 6.871-15.514 7.066-36.321 7.066-29.839 0-34.161-2.355-67.727-38.676-14.531-15.514-26.89-28.856-27.679-29.645-0.594-0.983-11.387 2.355-23.552 7.066-25.518 10.015-51.825 17.469-77.148 21.985-9.615 1.567-17.664 3.144-17.869 3.533-0.195 0.195-2.744 16.292-5.693 35.727-6.676 44.564-9.032 51.436-20.808 64.389-15.708 17.275-39.26 27.095-63.805 26.696-6.482-0.184-26.307-2.734-44.165-5.683zM488.069 912.568c11.192-4.905 19.046-12.37 21.402-20.224 1.772-5.304 15.903-92.467 15.903-97.372 0-0.983 4.127-2.355 9.421-2.949 50.258-6.676 82.053-15.309 121.907-32.983l22.374-10.015 4.127 5.1c2.355 2.744 17.275 19.241 33.372 36.516 32.584 35.338 38.277 39.26 55.951 37.1 14.92-1.772 27.29-9.421 51.63-31.611 25.917-23.562 32.195-30.628 37.1-41.421 3.922-8.643 4.905-23.357 1.772-31.406-1.567-4.321-28.068-33.966-60.273-67.922l-8.632-9.032 9.615-15.708c21.985-35.144 38.277-74.793 47.309-114.647l4.321-18.842 44.564-2.355c24.535-1.372 47.903-3.338 52.224-4.127 16.681-3.533 28.856-23.562 28.856-47.503 0.195-37.499-3.922-69.888-10.015-82.258-4.321-8.438-17.664-20.808-24.34-22.579-2.744-0.594-26.307 0.195-52.419 1.966-26.307 1.772-48.292 2.55-49.080 1.772-0.788-0.983-4.71-10.015-8.643-20.224-14.336-37.304-33.372-70.482-58.501-101.693-7.26-8.837-13.148-16.681-13.148-17.275 0-0.584 11.776-18.063 26.307-38.676 14.336-20.808 27.29-39.854 28.662-42.404 5.499-10.598-1.966-33.372-15.114-45.742-11.192-10.404-60.068-42.598-69.693-45.937-11.971-3.922-32.195-3.144-39.455 1.761-2.755 1.772-17.469 21.197-32.788 43.192l-27.873 40.049-20.019-6.482c-36.71-11.776-79.309-18.452-119.747-18.452h-19.825l-13.742-45.548c-7.66-25.129-15.514-48.292-17.664-51.436-6.083-8.837-17.469-13.742-33.761-14.531-12.175-0.788-18.258 0.389-46.131 8.438-33.372 9.615-39.66 12.175-49.869 19.825-7.455 5.888-16.486 21.985-16.486 29.645 0 3.338 6.083 26.112 13.742 50.842 7.455 24.74 13.742 45.937 13.742 47.114s-7.66 7.26-17.080 13.742c-33.567 22.579-56.34 43.387-82.452 74.793l-16.486 20.224-7.26-3.144c-46.336-19.63-85.985-34.161-93.245-34.161-11.387 0-27.484 9.82-35.533 21.596-3.338 4.905-11.776 22.774-18.452 39.854-11.192 27.484-12.564 32.584-12.564 44.37 0 14.531 4.116 25.129 12.564 33.178 2.744 2.355 25.518 12.759 50.647 22.774l45.916 18.493 0.195 49.664c0 47.309 0.389 51.241 5.693 75.387 3.144 14.131 5.693 27.29 5.888 29.245 0.195 3.144-9.032 9.226-43.971 28.856-50.647 28.662-53.207 31.212-54.579 51.825-1.178 16.486 1.178 22.579 20.419 56.146 23.163 40.049 36.127 51.436 59.095 51.436 7.66 0 31.017-11.776 92.068-46.92l6.277-3.533 16.292 15.309c30.034 27.873 65.966 52.224 97.956 66.355 10.209 4.516 13.742 7.066 13.742 9.82 0 2.161-3.144 23.757-6.871 48.097-8.049 51.63-8.049 53.402-2.949 63.212 8.438 16.886 23.357 24.34 60.662 30.628 35.154 5.888 55.368 6.093 66.949 0.788zM469.617 702.515c-55.757-7.66-105.615-32.195-146.647-71.854-52.613-51.036-79.114-113.859-79.114-188.068 0-44.954 8.438-79.903 28.662-119.163 44.564-86.968 132.905-140.954 230.072-140.954 144.097 0 260.311 116.214 260.311 260.506 0 112.097-71.066 211.825-176.681 247.941-33.167 11.203-83.231 16.302-116.603 11.592zM556.78 665.805c23.562-6.287 44.954-15.309 62.628-26.112l16.292-10.015-10.015-10.209c-5.499-5.499-10.015-10.598-10.015-11.387 0-0.584 5.888-11.192 12.954-23.163s12.564-22.18 12.175-22.374c-0.195-0.389-5.888-1.966-12.564-3.533-11.776-2.949-11.981-2.949-31.805 3.533-27.29 9.032-50.452 12.954-74.998 12.954-26.307 0-46.326-6.083-67.338-20.613l-14.131-9.82-16.691 1.178c-18.852 1.178-34.939 6.482-44.564 14.725l-6.287 5.499 16.691 27.679 16.886 27.873-6.277 10.998-6.287 10.793 16.486 7.854c15.903 7.455 38.277 14.531 56.34 17.664 4.905 0.983 24.146 1.372 42.404 1.178 25.938-0.584 36.731-1.567 48.118-4.7zM561.695 552.335c8.632-1.772 24.34-6.277 34.744-10.015l19.046-6.676 18.258 4.71c10.015 2.744 18.258 4.71 18.452 4.71 3.328-4.905 63.601-108.165 63.601-109.138 0-1.567-40.049-31.611-42.209-31.611-0.584 0-4.905 2.949-9.421 6.676-18.852 15.114-128.389 87.163-146.842 96.584-10.404 5.1-24.535 6.277-31.805 2.55-2.355-1.372-12.759-10.015-22.968-19.436-21.596-19.825-32.195-27.484-38.083-27.484-26.501 0 11.981 61.645 52.019 83.436 20.419 10.988 50.063 12.954 85.207 5.693zM387.564 534.077c5.693-2.355 16.097-4.905 23.163-5.693l12.564-1.372-7.066-9.82c-24.934-34.939-25.907-61.245-2.355-70.472 16.292-6.676 27.095-1.372 60.467 29.051 18.452 16.886 21.197 18.842 26.501 17.869 6.871-1.178 23.562-11.581 92.262-57.129 72.049-47.698 80.097-54.968 76.954-67.922-1.772-6.871-11.192-10.598-19.63-8.049-3.533 0.983-23.951 13.148-45.548 27.095-21.791 13.742-41.421 24.934-43.971 24.934-5.499 0.195-8.243-3.533-7.66-10.209 0.584-3.922 7.66-9.421 40.837-30.628 30.228-19.241 40.438-26.696 40.837-30.034 0.983-6.676-4.516-13.548-12.175-14.92-5.888-1.178-10.209 0.584-34.744 14.531-15.503 8.837-29.645 15.903-31.611 15.903-5.1 0-10.209-8.643-7.854-13.148 1.178-1.966 13.148-9.82 26.696-17.275 15.319-8.438 24.74-14.92 24.74-16.886 0-1.567-2.161-5.1-4.71-7.465-7.66-7.26-15.903-6.277-34.161 4.516-17.869 10.404-24.934 10.998-27.095 2.161-1.567-6.277 0.983-9.226 14.131-16.886 5.888-3.338 10.598-6.676 10.598-7.455 0-2.744-9.421-11.971-12.175-11.971-1.372 0-10.998 4.71-21.207 10.404-15.114 8.438-18.452 11.192-17.869 14.131 0.389 2.161 0.983 8.837 0.983 14.725 0.195 12.954-5.294 21.985-15.503 25.713-6.287 2.355-6.676 2.949-5.693 9.421 1.567 10.598-5.888 23.552-16.292 28.662-7.854 3.727-8.243 4.321-8.438 12.954 0 16.486-13.158 30.034-29.051 30.034-12.37 0-20.029-4.71-30.228-18.842-7.854-10.998-8.438-11.387-11.387-7.854-8.837 11.192-25.518 13.937-38.277 6.482-7.066-4.127-7.26-4.127-12.37-0.389-13.742 9.82-42.404 44.165-40.837 48.486 0.788 2.355 45.548 76.37 57.518 95.601l4.71 7.26 7.26-5.693c3.942-3.144 11.991-7.66 17.684-9.82zM301.384 411.382c6.676-8.049 16.691-18.647 22.579-23.562l10.404-9.032-4.905-9.81c-5.304-10.998-4.905-18.258 1.567-28.856 4.71-8.049 11.581-12.37 21.002-13.742 6.482-0.788 8.049-1.966 10.793-8.643 3.533-8.438 12.759-14.92 23.757-16.691 5.888-0.983 7.854-2.55 10.015-7.455 3.533-8.632 13.742-16.691 22.968-18.063 6.482-1.178 8.243-2.355 10.404-7.66 5.11-12.175 21.791-20.419 34.161-16.886 10.209 2.949 12.175 4.905 29.051 27.29 0.195 0.389 10.209-4.71 21.985-11.192 18.452-10.209 22.774-11.971 31.406-11.971 8.438 0 11.192 0.983 17.080 6.083 3.727 3.338 8.438 8.643 10.209 11.776 2.744 4.71 4.71 5.693 10.988 5.693 13.742 0 26.9 9.421 32.594 23.163 1.966 4.516 4.127 6.083 9.226 6.871 13.937 2.355 22.968 11.387 28.856 29.45 0.788 2.161 3.338 3.338 6.871 3.338 6.676 0 16.886 6.482 22.774 14.326 4.321 5.693 5.693 21.402 2.744 29.839-1.178 3.338 1.772 6.287 18.258 18.452 12.954 9.421 20.419 13.742 21.596 12.564 4.516-4.516-8.632-50.842-21.596-76.759-57.713-114.258-198.277-158.822-310.374-98.355-29.645 16.097-61.839 44.954-80.292 72.243-13.353 19.436-27.095 50.258-32.983 73.421l-5.304 21.207 4.71 8.837c2.744 4.71 5.304 8.643 6.083 8.643 0.604 0.010 6.697-6.472 13.373-14.52zM440.955 396.462c2.161-2.161 3.922-5.11 3.922-6.676 0-4.905-46.92-66.744-52.224-68.905-6.083-2.161-10.793 0.389-13.353 7.26-1.567 4.516 0.983 8.632 23.163 38.676 26.911 35.932 29.86 38.287 38.492 29.645zM376.177 380.754c2.161-2.161 3.922-5.304 3.922-7.066 0-3.338-12.37-21.596-17.469-25.713-6.482-5.499-17.859-0.389-17.859 7.854 0 3.727 13.937 24.146 18.452 27.29 3.727 2.55 9.021 1.567 12.954-2.365zM464.517 357.202c2.161-2.161 3.922-5.499 3.922-7.465 0-3.144-26.307-40.632-35.922-50.842-7.26-7.854-19.046-4.127-19.046 6.083 0 2.55 5.888 12.37 13.158 21.985 27.484 36.915 29.645 38.482 37.888 30.239zM489.247 316.959c1.772-2.744 2.744-6.083 2.161-7.66-3.144-7.854-28.273-38.676-32.594-39.854-5.888-1.372-14.531 7.26-12.564 12.759 0.584 1.772 7.26 11.581 14.725 21.596 11.581 15.708 14.131 18.063 19.241 18.063 3.932 0 6.881-1.567 9.032-4.905z" />
<glyph unicode="&#xe90e;" glyph-name="alarm-off" d="M949.146 110.49c-47.923 42.086-84.582 132.608-89.6 225.997v137.523c0 117.146-28.774 208.896-85.094 271.872-59.187 65.843-147.149 99.635-261.427 99.635s-202.24-33.382-261.427-99.635c-56.73-62.976-85.094-154.624-85.094-271.872v-137.626c-6.246-90.931-43.315-183.398-91.75-225.997-7.885-6.656-10.854-17.51-7.066-27.546 3.789-9.626 12.902-15.872 23.347-15.872h842.138c10.445 0 19.558 6.246 23.347 15.872 3.072 10.138 0.512 20.992-7.373 27.648zM160.768 129.638c13.722 20.378 25.805 43.315 36.25 69.222 17.51 43.725 28.365 92.979 31.232 140.493 0 0.41 0 133.837 0 133.837 0 204.698 95.846 308.531 284.774 308.531 188.826 0 284.774-103.834 284.774-308.531v-132.608c-2.458-16.282 29.184-157.594 65.434-210.944h-702.464zM511.795-53.76c-60.416 0-109.261 49.152-109.261 109.261 0 12.493 2.048 24.576 6.246 36.659 5.018 14.131 20.89 21.709 35.021 16.691s21.709-20.89 16.691-35.021c-2.048-5.837-2.867-12.083-2.867-18.33 0-30.003 24.576-54.579 54.579-54.579s54.579 24.576 54.579 54.579c0 6.246-1.229 12.493-3.379 18.33-5.018 14.131 2.458 30.003 16.691 35.021 14.131 5.018 30.003-2.458 35.021-16.691 4.198-11.674 6.246-24.166 6.246-36.659-0.307-60.109-49.152-109.261-109.568-109.261v0zM566.886 801.382c-14.643 0-27.136 11.674-27.136 26.726v41.984c0 14.643-11.674 26.726-26.317 26.726-14.541 0-26.214-12.083-26.214-26.726v-42.086c0-14.643-12.493-26.726-27.136-26.726-14.541 0-27.136 11.674-27.136 26.726v42.086c0 43.827 36.659 79.667 80.486 79.667s80.486-35.84 80.486-79.667v-42.086c0-14.95-12.493-26.624-27.034-26.624v0z" />
<glyph unicode="&#xe90f;" glyph-name="alarm-on" d="M438.723 894.013c-19.108-30.259-39.823-55.747-46.193-55.747-30.259 0-117.873-90.798-144.957-151.327-22.292-49.388-30.259-103.547-30.259-238.94 0-187.955-22.303-254.863-93.983-294.687-20.716-9.554-33.454-33.444-33.454-55.757v-39.823h844.237v47.79c0 35.052-7.967 47.79-28.672 47.79-17.531 0-43.008 14.346-60.529 33.444-25.498 28.682-31.857 66.908-38.236 251.689-6.38 159.283-15.923 229.366-35.041 266.004-27.085 49.377-114.688 133.806-140.175 133.806-6.38 0-27.085 25.487-46.203 55.747-23.88 41.421-42.988 55.757-73.257 55.757-30.259 0-49.377-14.336-73.277-55.747zM679.25 575.427c15.933-19.118 0-43.008-89.19-143.36-58.941-65.3-111.514-119.47-117.883-119.47-4.772 0-43.008 35.052-84.419 76.462-76.462 76.462-76.462 76.462-43.008 106.721 31.857 28.672 33.454 28.672 79.647-15.933l49.377-46.203 82.821 82.831c44.595 46.203 87.613 82.831 92.385 82.831 6.38 0.020 19.118-11.131 30.269-23.88zM424.387 25.887c0-27.085 62.126-79.647 92.385-79.647 33.464 0 82.831 46.203 82.831 76.452 0 12.739-31.857 19.118-87.613 19.118-47.78 0-87.603-6.369-87.603-15.923z" />
<glyph unicode="&#xe910;" glyph-name="alerm" d="M702.362 423.322v96.358h-143.36v143.36h-94.106v-143.36h-143.36v-96.358h143.36v-143.36h94.106v143.36h143.36zM841.318 241.869l100.762-100.762v-51.507h-860.16v51.507l100.762 100.762v277.811c0 76.186 23.859 144.486 71.68 205.005s108.237 98.918 181.453 115.405v33.485c0 20.89 7.475 38.81 22.426 53.76s32.87 22.426 53.76 22.426 38.81-7.475 53.76-22.426c14.95-14.95 22.426-32.87 22.426-53.76v-33.587c73.216-16.384 133.632-54.886 181.453-115.405s71.68-128.819 71.68-205.005v-277.709zM417.894 42.598h188.211c0-25.395-9.318-47.821-27.955-67.174-18.637-19.456-40.653-29.082-66.048-29.082s-47.411 9.728-66.048 29.082c-18.842 19.354-28.16 41.779-28.16 67.174z" />
<glyph unicode="&#xe911;" glyph-name="alert" d="M512-53.76c-277.094 0-501.76 224.666-501.76 501.76s224.666 501.76 501.76 501.76 501.76-224.666 501.76-501.76c0-277.094-224.666-501.76-501.76-501.76zM512 887.091c-242.483 0-438.989-196.608-438.989-439.091s196.506-438.989 438.989-438.989c242.483 0 438.989 196.506 438.989 438.989s-196.506 439.091-438.989 439.091zM480.666 322.56l-31.334 439.091h125.44l-31.334-439.091h-62.771zM512 259.891c34.611 0 62.771-28.058 62.771-62.669s-28.058-62.771-62.771-62.771c-34.611 0-62.669 28.058-62.669 62.771-0.102 34.509 28.058 62.669 62.669 62.669z" />
<glyph unicode="&#xe912;" glyph-name="arrow-2r" d="M976.998 636.928c-25.19 62.362-62.157 118.17-110.182 165.99-47.821 47.821-103.629 84.89-165.99 110.080-60.006 24.371-123.494 36.659-188.826 36.659s-128.819-12.288-188.928-36.762c-62.362-25.088-118.17-62.157-165.99-110.080-47.821-47.821-84.89-103.629-110.182-165.99-24.269-60.006-36.659-123.597-36.659-188.723s12.288-128.819 36.762-188.928c25.19-62.362 62.157-118.17 110.182-165.99 47.821-47.821 103.629-84.89 165.99-110.182 60.109-24.269 123.699-36.762 188.928-36.762 65.331 0 128.819 12.288 188.928 36.762 62.362 25.19 118.17 62.157 165.99 110.182 47.821 47.821 84.89 103.629 110.182 165.99 24.269 60.109 36.762 123.699 36.762 188.928-0.205 65.126-12.595 128.717-36.966 188.826zM933.171 447.898c0-54.784-10.342-108.237-30.822-158.618-21.094-52.326-52.224-99.226-92.467-139.366-40.141-40.141-87.040-71.27-139.366-92.467-50.483-20.48-103.834-30.822-158.618-30.822s-108.237 10.342-158.618 30.822c-52.326 21.094-99.226 52.326-139.366 92.467s-71.27 87.040-92.467 139.366c-20.48 50.483-30.822 103.834-30.822 158.618s10.342 108.237 30.822 158.618c21.094 52.326 52.326 99.226 92.467 139.366s86.938 71.27 139.366 92.467c50.483 20.48 103.834 30.822 158.618 30.822s108.237-10.342 158.618-30.822c52.326-21.094 99.226-52.326 139.366-92.467s71.27-86.938 92.467-139.366c20.48-50.381 30.822-103.834 30.822-158.618zM446.157 721.92c-7.066 6.861-16.589 10.65-26.522 10.65-10.035 0-19.354-3.789-26.522-10.65-7.066-6.861-11.059-16.077-11.059-25.805 0-9.83 3.891-18.944 11.059-25.907l215.142-208.077-215.142-208.077c-7.066-6.861-11.059-16.077-11.059-25.805 0-9.83 3.891-18.944 11.059-25.805 7.066-6.861 16.486-10.65 26.522-10.65s19.354 3.789 26.522 10.65l241.971 233.882c7.066 6.861 11.059 16.077 11.059 25.805 0 9.83-3.891 18.944-11.059 25.907l-241.971 233.882z" />
<glyph unicode="&#xe913;" glyph-name="arrow-2u" d="M512-53.76c-67.686 0-133.427 13.312-195.277 39.424-59.802 25.293-113.459 61.44-159.437 107.52s-82.227 99.738-107.52 159.437c-26.214 61.952-39.526 127.693-39.526 195.379s13.312 133.427 39.424 195.277c25.293 59.802 61.44 113.459 107.52 159.437 46.080 46.080 99.738 82.227 159.437 107.52 61.952 26.214 127.693 39.526 195.379 39.526s133.427-13.312 195.277-39.424c59.802-25.293 113.459-61.44 159.437-107.52 46.080-46.080 82.227-99.738 107.52-159.437 26.214-61.952 39.526-127.693 39.526-195.379s-13.312-133.427-39.424-195.277c-25.293-59.802-61.44-113.459-107.52-159.437-46.080-46.080-99.738-82.227-159.437-107.52-61.952-26.214-127.693-39.526-195.379-39.526zM512 903.885c-251.392 0-455.885-204.493-455.885-455.885s204.493-455.885 455.885-455.885c251.392 0 455.885 204.493 455.885 455.885s-204.493 455.885-455.885 455.885zM308.941 296.96l-64.922 64.922 269.722 269.722 266.24-266.24-64.922-64.922-201.318 201.318-204.8-204.8z" />
<glyph unicode="&#xe914;" glyph-name="arrow-3d" d="M512 949.76c-277.094 0-501.76-224.666-501.76-501.76s224.666-501.76 501.76-501.76c277.094 0 501.76 224.563 501.76 501.76 0 277.094-224.563 501.76-501.76 501.76v0 0zM512 29.798c-230.912 0-418.099 187.29-418.099 418.202s187.187 418.099 418.099 418.099c230.912 0 418.099-187.187 418.099-418.099 0.102-230.912-187.187-418.202-418.099-418.202v0 0zM738.304 561.357l-226.611-228.762-226.714 228.762c-15.053 15.155-39.322 15.155-54.374 0s-15.053-39.731 0-54.886l253.85-256.102c15.053-15.155 39.322-15.155 54.374 0l253.85 256.102c15.053 15.155 15.053 39.731 0 54.886s-39.424 15.155-54.374 0v0 0z" />
<glyph unicode="&#xe915;" glyph-name="arrow-back" d="M10.24 478.925c0 7.68 6.144 13.824 13.824 13.824h907.878c7.68 0 13.824-6.144 13.824-13.824v-59.904c0-7.68-6.144-13.824-13.824-13.824h-907.878c-7.68 0-13.824 6.144-13.824 13.824v59.904zM639.078 182.579c-5.427 5.427-5.427 14.131 0 19.558l308.736 297.267c5.427 5.427 14.131 5.427 19.558 0l42.394-42.394c5.427-5.427 5.427-14.131 0-19.558l-308.838-297.267c-5.427-5.427-14.131-5.427-19.558 0l-42.291 42.394zM1009.664 438.989c5.427 5.427 5.427 14.131 0 19.558l-308.736 297.267c-5.427 5.427-14.131 5.427-19.558 0l-42.394-42.394c-5.427-5.427-5.427-14.131 0-19.558l308.736-297.267c5.427-5.427 14.131-5.427 19.558 0l42.394 42.394z" />
<glyph unicode="&#xe916;" glyph-name="arrow-d2" d="M343.757 589.005l-78.643 0.102 243.507-282.214 250.163 282.112h-85.299l-164.864-190.464-164.864 190.464zM915.046-53.76h-806.093v1003.52h806.195v-1003.52zM119.398-43.315h785.306v982.63h-785.306v-982.63z" />
<glyph unicode="&#xe917;" glyph-name="arrow-d2-left" d="M42.598 480.87l457.216 456.602c16.486 16.384 43.213 16.384 59.597 0 16.486-16.486 16.486-43.11 0-59.494l-430.592-429.978 430.592-429.978c16.486-16.384 16.486-43.11 0-59.494s-43.11-16.384-59.597 0l-457.216 456.499c-9.114 9.011-12.698 21.094-11.776 32.973-0.922 11.776 2.662 23.859 11.776 32.87zM536.576 448c-0.922 11.776 2.662 23.859 11.776 32.87l372.941 372.429c16.486 16.384 43.11 16.384 59.597 0 16.486-16.486 16.486-43.11 0-59.494l-346.317-345.805 346.317-345.805c16.486-16.384 16.486-43.11 0-59.494s-43.11-16.384-59.597 0l-372.941 372.326c-9.011 9.114-12.595 21.197-11.776 32.973z" />
<glyph unicode="&#xe918;" glyph-name="arrowd3" d="M512-53.76c-67.686 0-133.427 13.312-195.277 39.424-59.802 25.293-113.459 61.44-159.437 107.52s-82.227 99.738-107.52 159.437c-26.214 61.952-39.526 127.693-39.526 195.379s13.312 133.427 39.424 195.277c25.293 59.802 61.44 113.459 107.52 159.437 46.080 46.080 99.738 82.227 159.437 107.52 61.952 26.214 127.693 39.526 195.379 39.526s133.427-13.312 195.277-39.424c59.802-25.293 113.459-61.44 159.437-107.52 46.080-46.080 82.227-99.738 107.52-159.437 26.214-61.952 39.526-127.693 39.526-195.379s-13.312-133.427-39.424-195.277c-25.293-59.802-61.44-113.459-107.52-159.437-46.080-46.080-99.738-82.227-159.437-107.52-61.952-26.214-127.693-39.526-195.379-39.526zM512 903.885c-251.392 0-455.885-204.493-455.885-455.885s204.493-455.885 455.885-455.885c251.392 0 455.885 204.493 455.885 455.885s-204.493 455.885-455.885 455.885zM513.741 264.499l-269.722 269.722 64.922 64.922 204.8-204.8 201.421 201.421 64.922-64.922-266.342-266.342z" />
<glyph unicode="&#xe919;" glyph-name="arrow-double-down" d="M413.082 516.301l98.918-98.918 433.459 433.459-98.918 98.918-334.541-334.541-334.541 334.541-98.918-103.629 334.541-329.83zM512 144.077l-334.541 334.541-98.918-98.918 433.459-433.459 433.459 433.459-98.918 98.918-334.541-334.541z" />
<glyph unicode="&#xe91a;" glyph-name="arrow-double-left" d="M621.056 888.627c0-15.667-5.939-31.232-17.92-43.213l-397.824-397.005 397.824-397.824c23.859-23.859 23.859-62.464 0-86.426-23.859-23.859-62.464-23.859-86.323 0l-441.139 441.139c-11.469 11.469-17.92 26.931-17.92 43.11 0 0 0 0 0 0.102 0 16.179 6.451 31.744 17.92 43.213l441.242 440.218c23.859 23.757 62.464 23.757 86.323-0.102 11.878-11.878 17.818-27.546 17.818-43.213zM966.246 888.627c0-15.667-5.939-31.232-17.92-43.213l-397.926-397.005 397.926-397.824c23.859-23.859 23.859-62.464 0-86.426-23.859-23.859-62.464-23.859-86.323 0l-441.139 441.139c-11.469 11.469-17.92 26.931-17.92 43.11 0 0 0 0 0 0.102 0 16.179 6.451 31.744 17.92 43.213l441.139 440.218c23.859 23.757 62.464 23.757 86.323-0.102 11.878-11.878 17.92-27.546 17.92-43.213z" />
<glyph unicode="&#xe91b;" glyph-name="arrow-down" d="M512 125.542l-501.76 537.498 100.352 107.52 501.76-537.498-100.352-107.52zM411.648 233.062l501.76 537.498 100.352-107.52-501.76-537.498-100.352 107.52z" />
<glyph unicode="&#xe91c;" glyph-name="arrow-left" d="M189.542 448l537.395 501.76 107.52-100.352-537.498-501.76-107.418 100.352zM296.96 548.352l537.498-501.76-107.52-100.352-537.395 501.76 107.418 100.352z" />
<glyph unicode="&#xe91d;" glyph-name="arrow-right" d="M834.458 448l-537.498-501.76-107.52 100.352 537.498 501.76 107.52-100.352zM726.938 347.648l-537.395 501.76 107.52 100.352 537.498-501.76-107.622-100.352z" />
<glyph unicode="&#xe91e;" glyph-name="arrow-u2" d="M343.757 306.995l164.864 190.464 164.864-190.464h85.299l-250.061 282.112-243.61-282.214 78.643 0.102zM915.046-53.76h-806.093v1003.52h806.195v-1003.52zM119.398-43.315h785.306v982.63h-785.306v-982.63z" />
<glyph unicode="&#xe91f;" glyph-name="arrow-up" d="M512 770.458l501.76-537.498-100.352-107.52-501.76 537.6 100.352 107.418zM612.352 663.040l-501.76-537.498-100.352 107.418 501.76 537.498 100.352-107.418z" />
<glyph unicode="&#xe920;" glyph-name="attach" d="M702.065 948.695c-31.713-3.553-65.423-16.63-96.696-37.478-13.967-9.318-68.086-62.095-267.694-261.478-222.444-222.013-251.935-252.17-264.581-271.247-17.295-25.723-29.942-53.668-37.929-83.169-5.325-19.292-5.765-25.948-5.99-59.433 0-32.604 0.666-40.141 5.1-56.556 15.084-56.105 43.469-101.581 93.153-149.033 59.658-57.221 120.207-84.060 189.624-84.060 39.475 0 70.083 6.871 107.561 23.951 41.247 18.627 35.932 13.752 312.269 289.874l257.935 257.485-49.9 49.9-253.932-253.491c-139.725-139.51-259.052-257.27-265.482-261.929-15.964-11.315-50.125-27.054-68.311-31.488-22.18-5.325-59.218-4.884-81.613 1.106-34.816 9.093-68.311 29.716-102.246 62.321-69.857 67.195-91.372 143.053-61.88 217.129 15.084 37.478 5.99 27.72 270.131 292.526 268.575 269.466 263.7 265.032 302.285 278.333 33.044 11.315 66.089 8.653 95.816-7.762 30.833-17.080 64.758-51.896 79.616-81.838 21.289-42.363 15.299-80.507-19.958-128.86-15.524-21.074-453.55-461.527-475.054-477.501-25.057-18.852-52.122-24.392-73.185-14.858-13.527 5.99-34.601 27.279-41.257 41.472-3.994 8.653-4.884 13.752-4.209 24.392 1.772 29.276-6.871 19.517 214.467 241.295l200.94 201.155-49.9 49.9-197.612-197.366c-108.452-108.667-202.045-203.366-207.596-210.688-12.421-16.189-23.726-39.475-28.611-58.778-4.874-18.852-3.103-48.794 3.553-68.526 14.418-41.032 57.661-81.838 99.584-94.259 15.524-4.434 48.353-4.659 65.649-0.225 18.412 4.659 46.131 18.412 62.095 30.607 7.322 5.54 117.545 114.657 245.074 242.627 248.166 248.627 248.617 249.068 269.681 292.311 24.392 50.125 25.948 102.021 4.434 150.589-15.524 34.816-59.443 85.606-94.034 108.452-41.472 27.505-86.497 39.485-131.297 34.601z" />
<glyph unicode="&#xe921;" glyph-name="attachment" d="M954.47 407.654c-12.39-18.739-26.829-36.454-43.315-52.941l-240.64-240.64c-132.915-133.018-348.467-133.018-481.382-0.102s-132.915 348.365 0 481.28l216.883 216.883c93.082 92.774 243.712 92.672 336.691-0.205 93.082-93.082 93.082-243.917 0-336.896l-168.448-168.55c-53.146-53.146-139.366-53.146-192.512 0s-53.146 139.366 0 192.512l192.512 192.512-48.128 48.128-192.512-192.512c-79.77-79.77-79.77-208.998 0-288.768s209.101-79.77 288.768 0l192.512 192.512-1.331 1.331c96.358 120.218 88.781 296.346-22.733 407.757-109.158 109.261-280.371 118.784-400.384 28.57-3.789-1.024-6.758-2.458-8.806-4.403l-240.64-240.64c-159.437-159.539-159.437-418.099 0-577.638 159.539-159.539 418.099-159.539 577.638 0l240.64 240.64c16.486 16.486 30.208 34.611 43.315 52.941l-48.128 48.23z" />
<glyph unicode="&#xe922;" glyph-name="back" d="M193.126 495.821l323.891 323.891h-135.066l-371.712-371.712 371.712-371.712h135.066l-323.277 323.277 820.019 0.717v95.642h-820.634z" />
<glyph unicode="&#xe923;" glyph-name="barcode" d="M97.464 947.466c-5.294-0.983-16.855-5.294-25.672-9.411-29.788-14.305-53.699-45.466-59.382-77.22-1.567-8.038-2.161-136.796-2.161-413.542 0-445.092-0.788-416.082 12.933-442.542 14.899-28.027 45.66-50.76 76.042-56.248 16.271-2.939 809.236-2.939 825.508 0 41.748 7.444 79.37 45.076 86.825 86.825 2.939 16.261 2.939 809.236 0 825.508-5.489 30.382-28.221 61.143-56.248 76.042-26.46 13.722 2.744 12.933-444.303 12.739-242.842-0.195-407.665-0.973-413.542-2.15zM233.677 448.082v-321.423h-62.71v642.847h62.71v-321.423zM372.828 448.082v-321.423h-94.085v642.847h94.085v-321.423zM531.579 448.082v-321.423h-62.71v642.847h62.71v-321.423zM639.375 448.082v-321.423h-62.71v642.847h62.71v-321.423zM745.206 448.082v-321.423h-62.71v642.847h62.71v-321.423zM853.002 448.082v-321.423h-62.71v642.847h62.71v-321.423z" />
<glyph unicode="&#xe924;" glyph-name="bill" d="M802.509-53.76v105.677h105.574v105.574h-105.574v105.677h-105.677v-105.677h-105.574v-105.574h105.574v-105.677zM908.083 938.701c0 6.144-4.813 11.059-10.854 11.059h-770.458c-6.042 0-10.854-4.915-10.854-11.059v-981.299c0-6.144 4.813-11.059 10.854-11.059h483.123c-43.827 38.707-71.475 95.334-71.475 158.413h-316.928v52.838h323.584c10.65 41.472 33.69 78.131 64.819 105.677h-388.403v52.838h581.018v-6.656c41.472-10.65 78.131-33.69 105.677-64.819v694.067zM802.509 421.581h-581.018v52.838h581.018v-52.838zM802.509 579.994h-581.018v52.838h581.018v-52.838zM802.509 738.509h-581.018v52.838h581.018v-52.838z" />
<glyph unicode="&#xe925;" glyph-name="buy" d="M352.369 946.289c-3.133-1.966-52.173-50.012-108.646-106.691l-102.769-102.963-0.788-10.588c-1.567-19.804 10.783-30.597 33.731-29.42 4.905 0.389 21.77 16.282 109.435 103.946 57.068 56.873 104.929 105.902 106.691 109.046 4.311 8.233 2.55 23.337-3.533 30.003-9.605 10.199-23.921 13.138-34.12 6.666zM557.906 946.493c-11.571-6.277-17.654-19.415-14.316-31.58 2.744-10.004 207.493-214.948 217.498-217.887 12.155-3.533 25.887 2.55 31.775 14.121 4.116 8.233 4.71 14.51 1.761 22.548-2.744 7.26-205.138 210.043-213.187 213.576-8.243 3.533-15.882 3.338-23.532-0.778zM63.283 665.252c-15.493-8.038-15.882-9.81-15.882-75.11 0-50.207 0.389-57.661 3.533-63.744 5.1-10.394 14.51-15.688 27.648-15.688h11.182l27.658-161.802c30.003-174.746 28.826-169.646 42.557-176.312 5.888-2.744 22.753-3.133 161.014-3.133 153.17 0 154.542 0 161.802 4.116 9.605 5.489 13.732 12.943 13.732 24.904 0 10.394-5.1 19.22-14.51 24.515-3.133 1.761-38.83 2.55-145.326 3.338l-141.21 0.983-22.958 133.356c-12.554 73.349-23.337 137.093-24.125 141.793l-1.178 8.233h320.655c219.853 0 320.85-0.584 320.85-1.966 0-1.178-3.922-17.459-8.827-36.086-6.666-26.081-8.233-35.502-7.055-40.008 7.25-24.904 37.847-29.809 50.985-8.233 1.966 3.338 8.233 24.125 13.926 46.090l10.394 40.202h9.021c11.377 0 21.576 5.294 26.665 13.926 3.727 6.277 3.922 10.199 3.922 65.894 0 56.678-0.195 59.423-4.116 64.522-2.161 2.939-6.472 7.26-9.421 9.411l-5.294 4.116-797.041 0.973-8.602-4.291zM831.887 590.131v-22.548h-727.613v45.107h727.613v-22.559zM727.941 383.027c-44.913-5.888-92.375-29.42-125.522-62.566-85.709-85.903-85.709-223.969 0-309.873 65.7-65.7 164.936-82.954 248.678-43.151 96.686 45.896 146.504 155.72 117.084 257.905-30.003 104.735-131.983 171.612-240.241 157.686zM787.169 325.571c77.466-14.899 132.966-81.787 132.966-160.031 0-111.596-109.824-189.85-215.736-154.153-34.324 11.766-68.833 39.619-87.081 70.799-50.801 86.682-12.554 198.666 80.21 234.557 29.235 11.377 60.416 14.316 89.641 8.827zM743.629 287.13c-3.727-3.727-3.922-6.472-3.922-55.89v-51.968h-51.968c-49.428 0-52.173-0.195-55.89-3.922-5.294-5.294-5.1-13.926 0.584-19.22 4.506-4.116 5.878-4.311 55.89-4.311h51.384v-51.579c0-51.579 0-51.773 4.506-55.89 5.683-5.294 13.926-5.489 19.026-0.389 3.727 3.727 3.922 6.472 3.922 55.89v51.968h51.968c49.418 0 52.163 0.195 55.89 3.922 4.905 4.905 5.294 16.087 0.584 19.804-2.355 2.161-15.104 2.939-55.306 3.727l-52.173 0.983-0.584 51.773c-0.389 44.913-0.983 52.367-3.727 55.501-4.301 4.7-15.278 4.506-20.183-0.399z" />
<glyph unicode="&#xe926;" glyph-name="calendar" d="M268.452 922.644l-6.472-5.683-0.584-36.475-0.594-36.28-134.134-1.167-15.688-5.489c-48.435-17.060-82.954-54.323-96.481-103.936-3.133-11.182-3.533-37.069-4.116-315.136-0.389-205.128 0-308.859 1.567-321.024 7.26-63.734 53.34-114.135 116.091-126.874 13.527-2.744 55.501-3.133 383.969-3.133s370.432 0.389 383.969 3.133c62.556 12.749 108.442 62.945 116.285 126.874 1.178 10.199 1.761 127.273 1.372 320.041-0.778 341.217 0.584 312.003-15.299 345.139-18.627 38.636-53.34 66.867-95.498 77.66-13.332 3.338-21.965 3.727-77.261 3.727h-62.362l-1.167 72.95-6.472 5.683c-7.066 6.277-15.104 7.25-23.726 2.939-8.827-4.71-10.004-10.199-10.004-47.258v-34.314h-419.666v70.984l-6.666 6.666c-8.827 8.817-18.043 9.216-27.064 0.973zM261.396 768.317l0.584-36.475 6.472-5.683c9.021-8.233 18.237-7.844 27.064 0.983l6.666 6.666v70.984h419.656v-34.314c0-38.441 1.372-43.735 11.766-48.046 8.428-3.533 19.026-0.584 24.32 6.472 3.727 5.1 4.116 8.632 4.71 40.786l0.584 35.103h55.296c62.556 0 74.127-1.567 96.481-12.554 23.921-11.766 43.141-33.925 52.163-60.201 2.939-8.632 4.516-19.026 5.294-33.536l0.983-21.176h-922.266v16.271c0.195 51.773 29.809 92.754 76.483 106.086 15.882 4.311 17.654 4.516 77.855 4.905l55.101 0.195 0.788-36.465zM972.851 369.050c0-294.543 0.584-280.228-12.349-304.148-12.749-24.32-34.314-42.363-60.795-51.374l-14.909-4.905h-745.574l-14.909 4.895c-8.038 2.744-19.22 7.844-24.709 11.571-13.332 8.428-29.614 26.47-36.864 40.591-11.96 23.921-11.571 10.783-11.571 303.37v267.090h921.682v-267.090zM347.279 508.477c-16.865-2.744-41.769-16.077-54.907-29.215-21.77-21.77-36.28-62.751-28.631-80.988 3.922-9.605 14.121-14.316 23.726-11.172 9.605 3.133 12.749 8.038 14.899 22.548 2.55 18.043 8.233 30.198 19.026 40.786 13.527 13.138 25.293 18.043 44.513 18.043 11.96 0 17.848-0.983 24.904-4.311 23.142-10.588 37.652-33.536 37.652-58.829-0.195-25.498-13.926-46.080-38.042-57.068-9.81-4.506-13.926-5.1-43.735-6.083l-33.147-1.178-4.71-5.489c-6.472-7.455-6.472-18.821 0-26.276l4.71-5.489 33.147-1.178c28.436-0.788 34.314-1.567 42.557-5.294 33.925-15.299 48.435-51.374 33.536-84.326-6.277-13.926-18.237-26.081-31.969-32.358-7.055-3.328-12.943-4.311-24.904-4.311-19.61 0.195-31.764 5.1-44.708 18.237-10.977 11.182-16.671 23.532-18.821 40.786-1.178 10.783-2.55 14.121-6.861 17.848-7.26 6.277-13.138 7.26-21.576 3.727-10.783-4.516-13.926-13.527-11.182-31.764 2.744-18.432 8.233-32.164 18.821-46.868 37.652-52.951 113.94-58.245 158.259-10.977 20.398 21.371 29.020 42.947 29.020 72.356 0 28.047-12.155 56.084-32.358 74.711l-8.827 8.038 8.827 8.038c33.137 30.597 41.964 80.794 21.371 123.156-6.666 13.732-29.614 37.059-42.947 43.735-20.572 10.578-46.653 14.889-67.645 11.162zM649.871 507.894c-5.1-2.355-7.844-6.083-14.121-19.22-10.394-22.548-24.709-41.769-43.141-58.44-17.848-16.282-20.193-21.371-14.51-32.748 2.55-5.294 5.683-8.233 10.783-10.004 6.666-2.55 8.038-2.355 15.688 1.372 4.71 2.161 13.926 9.216 20.787 15.493l12.155 11.377v-240.415h-24.32c-23.337 0-24.709-0.195-30.198-4.905-7.649-6.277-9.411-14.121-5.489-23.337 5.294-12.749 8.038-13.138 84.716-12.554l67.85 0.594 5.683 6.472c8.233 9.021 7.844 18.237-0.983 27.064l-6.666 6.666h-49.418v321.597l-5.294 5.888c-6.461 7.055-14.899 8.827-23.521 5.1z" />
<glyph unicode="&#xe927;" glyph-name="calendar2" d="M916.685 844.595h-97.075v56.627c0 13.414-10.854 24.269-24.269 24.269s-24.269-10.854-24.269-24.269v-56.627h-518.042v56.627c0 13.414-10.854 24.269-24.269 24.269s-24.269-10.854-24.269-24.269v-56.627h-97.075c-53.658 0-97.075-43.52-97.075-97.178v-679.834c0-53.658 43.52-97.075 97.075-97.075h809.267c53.658 0 97.075 43.52 97.075 97.075v679.834c0 53.658-43.52 97.178-97.075 97.178zM965.222 67.584c0-26.829-21.709-48.538-48.538-48.538h-809.37c-26.829 0-48.538 21.709-48.538 48.538v534.221h906.445v-534.221zM965.222 650.342h-906.445v97.075c0 26.829 21.709 48.538 48.538 48.538h97.075v-72.806c0-13.414 10.854-24.269 24.269-24.269s24.269 10.854 24.269 24.269v72.806h517.939v-72.806c0-13.414 10.854-24.269 24.269-24.269s24.269 10.854 24.269 24.269v72.806h97.075c26.829 0 48.538-21.811 48.538-48.538l0.205-97.075zM683.008 124.928h45.363v390.042h-34.714c-2.56-14.643-7.168-26.726-13.926-36.352-6.758-9.523-15.053-16.998-24.883-22.528s-20.685-9.318-32.768-11.264c-12.186-2.048-24.576-3.072-37.376-3.072v-37.376h98.304v-279.45zM451.584 179.712c-7.475-6.451-16.179-11.366-26.214-14.848-9.933-3.482-20.48-5.222-31.539-5.222-26.010 0-45.773 7.987-59.29 23.962s-20.685 36.659-21.402 61.85h-45.363c-0.307-20.173 2.458-38.093 8.294-53.965 5.837-15.77 14.336-29.082 25.395-39.834 10.957-10.854 24.371-18.944 40.038-24.474s33.075-8.294 52.326-8.294c17.818 0 34.611 2.458 50.483 7.475 15.872 4.915 29.594 12.39 41.37 22.323s21.094 22.323 28.058 37.069c6.963 14.848 10.445 32.051 10.445 51.507 0 23.45-5.632 43.827-16.794 61.133-11.264 17.203-28.365 28.365-51.507 33.587v1.126c14.95 6.963 27.443 17.306 37.376 30.822 10.035 13.517 14.95 29.082 14.95 46.797 0 17.92-2.97 33.587-8.806 46.694-5.837 13.21-14.029 24.064-24.269 32.461-10.342 8.397-22.528 14.746-36.659 18.944s-29.286 6.349-45.67 6.349c-18.842 0-35.533-3.072-49.971-9.318s-26.419-14.848-36.045-25.805c-9.626-10.957-16.998-24.269-22.221-39.629-5.12-15.36-8.090-32.461-8.806-51.2h45.363c0 11.366 1.434 22.221 4.301 32.461s7.168 19.251 13.107 26.931c5.837 7.68 13.312 13.824 22.426 18.432s19.661 6.861 31.744 6.861c19.251 0 35.226-5.222 48.128-15.667 12.8-10.445 19.251-26.112 19.251-47.002 0-10.342-1.946-19.456-5.837-27.546s-9.216-14.746-15.77-20.070c-6.554-5.325-14.234-9.318-22.938-12.186-8.806-2.662-17.92-4.096-27.546-4.096h-14.95c-1.434 0-3.072 0.205-4.813 0.614v-39.629c8.499 1.126 17.613 1.638 27.238 1.638 11.366 0 22.016-1.536 31.744-4.71 9.83-3.174 18.227-7.885 25.395-14.336s12.8-14.234 17.101-23.654c4.301-9.318 6.349-20.070 6.349-32.154 0-11.776-2.253-22.323-6.656-31.642-4.301-9.523-10.24-17.408-17.818-23.757v0z" />
<glyph unicode="&#xe928;" glyph-name="call1" d="M997.99 92.467c-10.138-14.541-37.888-49.664-69.018-82.125-54.272-56.525-80.077-64-94.822-64-0.512 0-0.922 0-1.434 0h-0.614c-20.070 0.614-73.523 2.355-159.334 42.906-104.96 49.562-223.232 139.776-351.539 268.083s-218.522 246.682-268.083 351.642c-40.55 85.811-42.189 139.264-42.906 159.334v0.614c-0.512 14.438 5.632 40.243 64 96.256 32.461 31.13 67.584 58.88 82.125 69.018 11.674 8.192 30.413 17.408 53.453 15.258 17.306-1.638 32.256-9.421 40.96-21.504 11.674-16.179 123.699-185.958 135.885-205.21 12.083-19.046 10.24-47.718-5.12-76.698-8.806-16.896-38.81-69.53-51.917-92.467 13.824-19.968 52.531-71.578 134.349-153.395 107.008-107.008 162.304-140.39 162.816-140.698 9.523-5.632 12.698-17.92 7.066-27.443s-17.92-12.698-27.443-7.066c-2.355 1.434-59.392 35.43-170.803 146.842s-145.408 168.55-146.842 170.906c-3.686 6.246-3.686 13.926-0.102 20.173 0.512 0.819 46.49 81.203 57.344 101.888 9.933 18.739 9.421 32.358 6.758 36.454-11.571 18.227-123.494 188.006-134.451 203.162-3.277 4.506-19.661 10.24-38.912-3.174-11.366-7.987-45.158-34.202-77.005-64.819-51.61-49.459-52.019-66.15-52.019-66.355v-0.614c0.512-17.818 2.048-65.126 39.014-143.462 47.616-100.864 135.168-215.45 260.198-340.48s239.514-212.582 340.378-260.198c78.336-36.966 125.645-38.502 143.462-39.014h0.614c0.102 0 4.301 0.102 14.643 6.656s26.931 19.558 51.61 45.363c30.515 31.846 56.73 65.638 64.717 77.005 13.517 19.354 7.885 35.533 3.379 38.707-13.005 9.114-182.989 122.266-203.162 134.554-4.403 2.662-15.872 2.765-30.413-3.482-2.048-0.922-4.198-1.946-6.246-2.97-9.83-5.12-21.914-1.434-27.136 8.397s-1.434 21.914 8.397 27.136c2.97 1.536 6.042 3.072 9.114 4.403 25.6 11.059 50.176 11.366 67.277 0.922 20.582-12.595 189.747-125.030 205.312-135.987 12.39-8.704 20.378-23.757 22.016-41.267 1.024-12.595-0.717-32.051-15.565-53.248zM991.232 905.83v-253.747c0-11.059-9.011-20.070-20.070-20.070s-20.070 9.011-20.070 20.070v185.139l-222.413-222.31c-3.891-3.891-9.114-5.837-14.234-5.837s-10.24 1.946-14.234 5.837c-7.885 7.885-7.885 20.582 0 28.365l222.413 222.413h-185.139c-11.059 0-20.070 9.011-20.070 20.070s9.011 20.070 20.070 20.070h253.747z" />
<glyph unicode="&#xe929;" glyph-name="call2" d="M770.253-53.76c-84.787 0-290.714 108.442-463.77 340.992-161.792 217.6-240.435 374.784-240.435 480.563 0 83.354 57.446 123.085 88.371 144.384l7.68 5.325c34.099 24.371 87.245 32.256 107.52 32.256 35.635 0 50.79-20.89 59.802-39.117 7.782-15.36 71.885-152.986 78.336-170.086 10.035-26.317 6.656-64.614-24.166-86.733l-5.53-3.891c-15.258-10.547-43.725-30.31-47.718-54.272-1.946-11.674 1.946-23.859 11.878-37.274 49.562-66.867 208.077-263.168 236.646-289.792 22.323-20.89 50.79-23.859 70.042-7.578 19.968 16.794 28.877 26.829 28.979 26.931l2.048 1.946c1.638 1.434 17.306 13.824 42.803 13.824 18.432 0 37.069-6.349 55.603-18.842 48.23-32.461 156.57-104.858 156.57-104.858l1.741-1.331c13.926-11.878 33.894-46.080 10.547-90.624-24.166-46.387-99.328-141.824-176.947-141.824zM269.517 912.589c-17.613 0-60.826-7.475-85.914-25.395l-8.090-5.632c-28.774-19.968-72.397-50.074-72.397-113.869 0-97.485 76.288-247.398 233.062-458.342 171.315-230.4 367.104-326.042 433.971-326.042 56.73 0 121.856 79.36 144.077 121.856 13.619 26.112 2.458 40.858-1.331 44.749-12.493 8.397-110.285 73.83-155.136 104.141-12.288 8.294-24.064 12.493-34.816 12.493-9.83 0-16.384-3.482-18.534-4.813-3.686-3.891-13.619-14.131-31.334-29.082-33.075-27.955-83.558-24.576-119.296 8.909-32.154 30.003-194.662 232.346-241.050 294.81-16.077 21.606-22.323 43.622-18.842 65.434 6.554 39.424 43.418 65.024 63.181 78.746l4.915 3.482c17.715 12.595 13.926 35.533 11.059 43.315-5.53 14.438-68.813 150.63-76.8 166.707-6.656 13.107-11.776 18.534-26.726 18.534z" />
<glyph unicode="&#xe92a;" glyph-name="call3" d="M718.52 948.961c-69.745-13.302-129.608-53.002-167.373-111.37-64.379-99.564-50.862-229.386 32.829-313.723 48.282-48.927 109.435-74.035 179.61-74.035 68.024 0 128.748 25.539 177.674 75.1 52.357 52.787 78.756 127.252 71.24 200.417-3.43 31.969-10.516 56.863-25.108 86.262-32.614 66.755-90.982 114.176-163.512 133.274-26.173 6.656-79.821 8.796-105.359 4.076zM778.394 807.977l6.226-6.656v-76.82h35.4c25.969 0 37.55-0.86 42.916-3 7.506-3.215 13.947-12.657 13.947-20.603 0-7.936-6.441-17.377-13.947-20.603-5.366-2.15-16.957-3-42.916-3h-35.41v-77.67l-6.226-6.226c-10.947-10.732-29.399-7.721-36.475 6.011-1.505 2.785-2.355 18.452-2.355 41.196v36.69h-35.41c-42.056 0-48.712 1.72-54.077 14.377-2.785 7.086-3 9.226-0.43 16.732 4.936 14.162 11.377 16.097 54.077 16.097h35.84v36.69c0 22.743 0.86 38.41 2.355 41.196 4.076 8.151 10.947 12.237 20.818 12.237 7.721 0.010 10.516-1.065 15.667-6.646zM60.396 810.127c-21.883-6.226-40.776-25.754-47.636-48.927-6.226-21.893-0.43-104.069 12.227-170.383 42.486-221.010 180.47-417.147 375.521-534.098 119.736-71.885 258.57-112.015 388.393-112.23 41.411 0 42.056 0 52.787 5.796 6.011 3.215 15.452 10.732 20.818 16.732 16.527 18.452 16.527 18.022 16.527 125.317v94.628l-5.581 11.807c-6.656 14.807-18.022 26.614-31.969 33.69-9.441 4.936-14.592 5.796-42.916 7.291-53.647 3-90.767 9.011-131.758 21.463-24.033 7.086-41.196 7.936-57.078 2.365-7.291-2.57-28.539-17.377-64.809-45.066-29.829-22.743-55.142-41.206-56.648-41.206-6.441 0-61.368 34.12-89.692 55.583-59.228 45.271-109.65 104.929-148.275 175.104l-7.086 13.087 43.131 57.508c56.433 74.885 56.218 74.455 40.561 128.963-10.301 35.625-16.527 73.82-18.452 116.306-1.505 30.044-2.58 37.98-6.656 47.206-6.441 15.022-23.388 30.904-39.27 36.69-12.022 4.506-15.237 4.721-104.069 4.506-50.432 0.020-94.423-1.055-98.068-2.13z" />
<glyph unicode="&#xe92b;" glyph-name="call5" d="M204.8 946.821c-19.026-3.133-49.224-13.332-69.622-23.532-19.415-9.81-38.636-24.125-58.245-43.735-108.841-108.257-83.743-283.187 70.011-487.731 78.049-103.547 205.332-230.83 308.879-308.879 204.544-153.754 379.474-178.852 487.731-70.011 19.026 19.22 33.731 38.636 43.141 57.262 16.865 33.147 29.020 79.616 26.276 101.192-2.744 22.548-18.432 40.008-49.029 54.712-22.354 10.588-165.714 64.522-183.562 68.833-17.848 4.516-25.692 4.71-38.636 0.788-17.654-5.294-25.498-14.316-44.718-52.367-18.821-37.069-21.576-41.185-33.341-47.258-10.004-5.1-35.492-6.666-54.323-3.338-19.804 3.533-73.155 31.775-114.33 60.6-51.374 35.901-130.99 114.145-170.609 167.875-27.453 37.069-61.972 98.836-66.877 119.634-4.311 19.026-3.133 48.046 2.55 58.839 6.083 11.571 10.588 14.909 42.752 30.986 44.913 22.354 53.535 30.403 58.051 52.951 3.727 18.627-0.788 34.908-35.297 125.901-35.297 93.542-40.202 104.53-53.34 119.235-16.282 18.237-34.908 23.142-67.461 18.043zM762.737 855.624v-94.136h-188.273v-62.751h188.273v-188.273h62.751v188.273h188.273v62.751h-188.273v188.273h-62.751v-94.136z" />
<glyph unicode="&#xe92c;" glyph-name="cancel" d="M556.851 447.898l447.795 448.205c12.186 12.186 12.186 32.154-0.102 44.339-12.186 12.186-32.154 12.186-44.339 0l-448.205-448.717-448.307 448.819c-12.186 12.186-32.051 12.186-44.339 0-12.186-12.288-12.186-32.051 0-44.339l447.795-448.205-447.795-448.205c-12.186-12.186-12.186-32.154 0-44.339 6.144-6.144 14.131-9.114 22.118-9.114s16.077 2.97 22.118 9.114l448.41 448.717 448.102-448.717c6.144-6.144 14.234-9.114 22.221-9.114 8.090 0 16.077 2.97 22.118 9.114 12.288 12.186 12.288 32.154 0.102 44.339l-447.693 448.102z" />
<glyph unicode="&#xe92d;" glyph-name="car1" d="M219.341 364.339c34.611 0 62.771-28.16 62.771-62.771s-28.16-62.771-62.771-62.771c-34.611 0-62.771 28.16-62.771 62.771s28.16 62.771 62.771 62.771zM219.341 427.11c-69.325 0-125.44-56.115-125.44-125.44s56.115-125.44 125.44-125.44c69.325 0 125.44 56.115 125.44 125.44s-56.218 125.44-125.44 125.44v0zM846.541 364.339c34.611 0 62.771-28.16 62.771-62.771s-28.16-62.771-62.771-62.771c-34.611 0-62.771 28.16-62.771 62.771s28.16 62.771 62.771 62.771zM846.541 427.11c-69.325 0-125.44-56.115-125.44-125.44s56.115-125.44 125.44-125.44c69.325 0 125.44 56.115 125.44 125.44s-56.218 125.44-125.44 125.44v0zM806.707 521.523c-81.101 76.698-141.107 134.246-180.326 170.189-27.853 25.498-46.182 28.058-55.808 28.058-9.114 0-241.664 0-268.698 0s-41.984-5.018-55.808-28.058c-13.824-23.040-89.702-113.254-106.701-143.565-112.64-23.45-129.126-44.851-129.126-78.336 0-18.944 0-144.282 0-144.282 0-18.125 45.363-65.638 62.771-65.638h51.507c0 0 0 122.573 94.106 122.573s94.106-122.573 94.106-122.573h440.832c0 0 0 122.573 94.106 122.573s94.106-122.573 94.106-122.573h9.421c17.306 0 62.771 47.616 62.771 65.638 0 0 0 98.918 0 117.862-0.205 32.051-66.15 50.381-207.258 78.131zM705.843 510.669c0 0-453.837 0-479.846 0-19.046 0-28.058 10.957-9.523 36.557 16.179 22.426 54.374 71.885 63.386 84.378 11.674 16.179 19.149 21.606 39.834 21.606 20.582 0 240.538 0 240.538 0 16.077 0 33.382-7.27 44.851-17.51 15.974-14.234 80.077-74.65 105.165-98.918 22.528-21.504 12.186-26.112-4.403-26.112z" />
<glyph unicode="&#xe92e;" glyph-name="car2" d="M352.358 949.76l-216.678-216.678v-786.842h752.64v1003.52h-535.962zM831.283 3.277h-638.566v729.805h159.642v159.642h478.925v-889.446zM261.12 140.083h501.76v-22.835h-501.76v22.835zM580.403 630.477v-262.349h45.568c0-31.539 25.498-57.037 57.037-57.037s57.037 25.498 57.037 57.037h45.568v114.074l-102.605 148.275h-102.605zM683.008 333.926c-18.842 0-34.202 15.36-34.202 34.202s15.36 34.202 34.202 34.202c18.944 0 34.202-15.36 34.202-34.202s-15.258-34.202-34.202-34.202zM614.605 493.568v102.707h53.555l71.885-102.605h-125.44zM352.358 311.194c31.539 0 57.037 25.498 57.037 57.037h148.275v262.246h-22.835v-239.514h-11.366v216.678h-273.715v-216.678h-11.366v-22.835h57.037c-0.102-31.437 25.395-56.934 56.934-56.934zM352.358 402.432c18.842 0 34.202-15.36 34.202-34.202s-15.36-34.202-34.202-34.202-34.202 15.36-34.202 34.202 15.258 34.202 34.202 34.202zM261.12 265.523h501.76v-22.835h-501.76v22.835zM512 755.917h262.246v-22.835h-262.246v22.835z" />
<glyph unicode="&#xe92f;" glyph-name="chance" d="M953.446 296.038l-159.642 431.206c-27.853 75.366-113.459 114.483-190.771 87.347l-442.778-155.443c-77.312-27.136-117.555-110.387-89.702-185.754l159.642-431.206c27.853-75.264 113.459-114.483 190.771-87.347l442.778 155.443c77.312 27.136 117.555 110.49 89.702 185.754zM837.12 182.17l-442.778-155.443c-36.659-12.902-77.21 5.734-90.317 41.37l-159.642 431.206c-13.21 35.635 5.837 75.162 42.496 87.962l442.778 155.443c36.659 12.902 77.21-5.734 90.317-41.37l159.642-431.206c13.21-35.635-5.837-75.162-42.496-87.962zM435.2 225.69c-27.443 12.595-60.109 1.126-73.011-25.6s-1.126-58.573 26.317-71.168c27.443-12.595 60.109-1.126 73.114 25.6 12.8 26.726 1.024 58.675-26.419 71.168zM540.058 442.88c-32.973 15.155-72.294 1.331-87.859-30.822-15.462-32.154-1.331-70.451 31.642-85.504 32.973-15.155 72.294-1.331 87.859 30.822s1.331 70.451-31.642 85.504zM635.494 640.512c-27.443 12.595-60.109 1.126-73.011-25.6s-1.126-58.573 26.317-71.168c27.443-12.595 60.109-1.126 73.114 25.6s1.024 58.675-26.419 71.168zM668.774 903.885c1.229 0 123.802 1.536 151.859-87.245 3.789-12.083 16.998-18.842 29.389-15.155 0.41 0.102 0.717 0.205 1.024 0.307 11.776 4.096 18.227 16.589 14.541 28.365-38.502 121.446-191.386 119.706-197.837 119.603-13.005-0.307-23.347-10.752-23.040-23.45 0.307-12.595 11.059-22.63 24.064-22.426zM915.046 763.802c0.307-12.698 11.059-22.733 24.064-22.426 2.662 0.102 5.12 0.512 7.475 1.331 9.216 3.277 15.77 11.981 15.565 22.016-1.434 64.614-18.432 97.894-20.378 101.478-6.042 11.162-20.070 15.258-31.539 9.626-11.469-5.734-15.974-19.558-10.24-30.822 0.102-0.205 13.824-27.341 15.053-81.203z" />
<glyph unicode="&#xe930;" glyph-name="chart3" d="M438.272 859.955v-443.085l313.242-313.242c-32.051-26.522-67.482-48.026-105.984-64.307-52.736-22.323-108.749-33.587-166.605-33.587-57.754 0-113.869 11.264-166.605 33.587-50.995 21.606-96.768 52.429-136.090 91.75s-70.144 85.094-91.75 136.090c-22.221 52.838-33.587 108.851-33.587 166.707s11.264 113.869 33.587 166.605c21.606 50.995 52.429 96.768 91.75 136.090s85.094 70.144 136.090 91.75c40.346 16.998 82.534 27.648 125.952 31.642zM478.925 902.554c-258.867 0-468.685-209.818-468.685-468.685s209.818-468.685 468.685-468.685c129.434 0 246.579 52.429 331.469 137.318l-331.469 331.366v468.685zM579.789 888.32c44.237-4.096 87.245-14.848 128.205-32.256 51.712-21.811 98.099-53.146 137.933-92.979s71.168-86.323 92.979-137.933c22.63-53.453 34.099-110.285 34.099-168.858s-11.469-115.405-34.099-168.858c-16.589-39.117-38.502-75.264-65.536-107.827l-293.581 293.478v415.232zM539.136 930.918v-474.726l335.667-335.667c85.811 86.016 138.957 204.595 138.957 335.667 0 262.144-212.48 474.726-474.624 474.726v0z" />
<glyph unicode="&#xe931;" glyph-name="chat2" d="M512 949.76c-276.992 0-501.76-208.998-501.76-466.739 0-130.765 64-267.469 223.744-348.16 0-53.862-51.098-134.758-102.4-188.621 153.293 13.517 220.467 52.634 275.046 80.384 34.099-6.656 69.12-10.547 105.37-10.547 277.094 0 501.76 208.896 501.76 466.944 0 257.741-224.666 466.739-501.76 466.739zM798.72 448h-215.040v-215.040h-71.68v215.040h-215.040v71.68h215.040v215.040h71.68v-215.040h215.040v-71.68z" />
<glyph unicode="&#xe932;" glyph-name="chat3" d="M908.083 543.13c0 215.347-201.421 390.554-448.922 390.554s-448.922-175.206-448.922-390.554c0-129.126 72.499-248.525 194.56-321.638v-125.85c0-7.68 4.198-14.643 10.957-18.33 3.072-1.741 6.451-2.458 9.83-2.458 3.994 0 7.987 1.126 11.469 3.482l57.242 37.888c0.922 0.614 1.843 1.331 2.662 2.048l65.843 43.827c32.563-6.246 64.922-9.421 96.358-9.421 247.501 0 448.922 175.206 448.922 390.451zM459.162 194.355c-31.334 0-63.795 3.482-96.563 10.24-5.427 1.126-11.059 0-15.77-3.072l-75.776-50.483c-0.922-0.614-1.741-1.229-2.56-1.946l-22.118-14.643v99.123c0 7.475-4.096 14.438-10.547 18.125-115.2 64.922-184.013 173.978-184.013 291.533 0 192.41 182.682 348.979 407.245 348.979s407.245-156.57 407.245-348.979c0.102-192.41-182.579-348.877-407.142-348.877zM927.437 442.982c29.286-39.731 44.749-85.606 44.749-132.71 0-83.866-49.254-161.792-131.686-208.384-6.554-3.686-10.547-10.65-10.547-18.125v-62.054l-7.168 4.71c-0.614 0.614-1.434 1.126-2.15 1.741l-55.398 36.966c-4.608 3.072-10.342 4.198-15.77 3.072-97.485-20.378-191.693 1.843-262.042 54.579l-24.986-33.28c77.619-58.163 180.941-83.558 286.925-63.795l45.875-30.515c0.717-0.614 1.536-1.229 2.253-1.741l41.882-27.648c3.482-2.253 7.475-3.482 11.469-3.482 3.379 0 6.758 0.819 9.83 2.458 6.758 3.584 10.957 10.65 10.957 18.33v88.883c89.19 54.682 142.131 142.95 142.131 238.387 0 56.115-18.33 110.49-52.838 157.389l-33.485-24.781z" />
<glyph unicode="&#xe933;" glyph-name="chatting" d="M839.68 566.374c-0.717-9.216-1.741-18.739-3.174-28.877-24.371-166.298-158.106-287.027-317.952-287.027h-52.122l-9.523-9.83c35.84-65.741 102.707-108.544 177.664-108.544h51.712l102.4-105.472c6.656-6.758 15.667-10.445 24.781-10.445 4.301 0 8.704 0.819 12.8 2.458 13.005 5.12 21.504 17.51 21.504 31.334v86.221c95.232 19.558 165.888 107.827 165.888 214.426 0.102 109.158-75.571 199.578-173.978 215.757v0zM787.763 544.563c-20.787-142.131-134.042-245.35-269.107-245.35h-73.216l-141.107-145.203c-7.68-7.885-18.125-12.083-28.774-12.083-5.018 0-10.035 0.922-14.848 2.867-15.155 6.042-24.986 20.48-24.986 36.454v122.266c-129.126 23.654-225.485 142.234-225.485 285.901 0 160.051 122.368 290.304 272.691 290.304h235.622c150.323 0 272.691-130.253 272.691-290.304 0-13.926-1.126-28.57-3.482-44.851v0zM207.155 679.219c-10.752 0-19.456-9.114-19.456-20.275s8.704-20.275 19.456-20.275h383.283c10.752 0 19.456 9.114 19.456 20.275 0 11.264-8.806 20.275-19.456 20.275h-383.283zM437.248 491.11c10.752 0 19.456 9.114 19.456 20.275 0 11.264-8.704 20.275-19.456 20.275h-230.093c-10.752 0-19.456-9.114-19.456-20.275s8.704-20.275 19.456-20.275h230.093z" />
<glyph unicode="&#xe934;" glyph-name="chec6" d="M131.174 508.621l-58.266-58.778c0 0 105.984-100.147 169.677-194.56 63.795-94.618 151.45-183.603 151.45-183.603s153.6 259.379 309.35 469.914c117.043 158.208 247.501 282.726 247.501 282.726h-122.163c0 0-98.304-88.474-205.21-194.56-123.085-122.163-257.024-257.024-257.024-257.024l-235.315 135.885zM512 918.426c259.379 0 470.426-211.046 470.426-470.426s-211.046-470.426-470.426-470.426c-259.379 0-470.426 211.046-470.426 470.426s211.046 470.426 470.426 470.426zM512 949.76c-277.094 0-501.76-224.666-501.76-501.76s224.666-501.76 501.76-501.76c277.094 0 501.76 224.666 501.76 501.76s-224.666 501.76-501.76 501.76v0z" />
<glyph unicode="&#xe935;" glyph-name="chec9" d="M10.24 886.989v-878.080h878.080v450.355l-125.44-125.44v-199.475h-627.2v627.2h450.355l125.44 125.44h-701.235zM888.32 886.989l-376.32-376.32-125.44 125.44-125.44-125.44 250.88-250.88 501.76 501.76-125.44 125.44z" />
<glyph unicode="&#xe936;" glyph-name="check1" d="M463.667 948.091c-71.762-7.465-149.637-33.505-210.76-70.175-66.54-40.294-130.386-104.141-170.68-170.691-49.572-82.401-75.827-184.044-71.526-278.671 5.437-125.184 54.108-239.278 139.899-328.243 42.332-44.145 86.477-76.288 141.036-103.004 72.438-35.543 138.537-50.708 220.713-50.708s148.726 15.165 220.713 50.708c54.784 26.941 98.703 59.085 140.349 102.093 74.25 77.199 119.521 169.779 136.274 278.211 5.427 35.543 5.427 104.817 0 140.349-8.602 56.136-22.641 101.192-46.858 150.538-83.077 169.554-250.143 276.398-439.163 280.699-21.74 0.471-48.671 0.020-59.996-1.106zM765.43 612.147c17.428-16.978 19.466-19.917 19.466-27.392 0-7.7-6.789-14.94-162.314-170.24-158.003-158.228-162.304-162.304-170.455-162.079-7.926 0.225-13.814 5.663-115.681 107.53-125.86 126.095-117.709 113.418-91.003 141.036 16.978 17.428 25.805 22.866 34.181 20.603 2.939-0.676 42.783-38.932 88.965-85.115l83.763-83.763 139.223 139.213c129.034 129.034 139.899 139.223 146.913 139.223 6.564 0 10.414-2.714 26.941-19.016z" />
<glyph unicode="&#xe937;" glyph-name="check2" d="M10.24 399.462l60.723 60.723 240.742-240.742-60.723-60.723-240.742 240.742zM951.091 737.28l62.771-60.723-518.042-517.837-242.79 240.742 62.771 60.723 180.019-180.122 455.27 457.216zM768.922 676.659l-273.101-275.149-60.723 60.723 273.101 275.149 60.723-60.723z" />
<glyph unicode="&#xe938;" glyph-name="check3" d="M999.629 789.299c-18.739 18.739-43.827 18.739-62.669 0l-463.36-463.462-181.555 181.658c-18.739 18.739-43.827 18.739-62.669 0-18.739-18.739-18.739-43.827 0-62.669l212.992-212.89c6.246-6.246 18.739-12.493 31.334-12.493s25.088 6.246 31.334 12.493l494.694 494.694c18.739 18.842 18.739 43.827-0.102 62.669zM911.974 382.259c-25.088 6.246-50.074-6.246-56.32-31.334-43.827-169.062-200.397-294.298-375.706-294.298-212.992 0-388.301 175.309-388.301 388.198s175.309 388.301 388.301 388.301c75.162 0 150.323-25.088 212.89-62.669 18.739-12.493 50.074-6.246 62.669 12.493 12.493 18.739 6.246 50.074-12.493 62.669-75.162 50.074-169.062 81.408-262.963 81.408-256.922-6.246-469.811-219.136-469.811-482.202s212.89-475.955 475.955-475.955c219.136 0 407.040 150.323 463.36 356.966 6.246 25.088-12.493 50.176-37.581 56.422z" />
<glyph unicode="&#xe939;" glyph-name="check4" d="M10.24 399.462l60.723 60.723 240.742-240.742-60.723-60.723-240.742 240.742zM951.091 737.28l62.669-60.723-517.939-517.837-242.79 240.742 62.669 60.723 180.122-180.122 455.27 457.216zM768.922 676.659l-273.101-275.149-60.723 60.723 273.101 275.149 60.723-60.723z" />
<glyph unicode="&#xe93a;" glyph-name="check5" d="M709.12 595.354l-253.952-259.584-140.493 140.493c-12.288 12.288-32.051 12.288-44.339 0s-12.288-32.154 0-44.339l162.918-162.918c5.837-5.837 13.824-9.216 22.221-9.216 0.102 0 0.102 0 0.205 0 8.397 0 16.384 3.482 22.221 9.421l276.070 282.214c12.083 12.39 11.878 32.256-0.512 44.339-12.39 12.186-32.256 11.981-44.339-0.41zM512 949.76c-276.685 0-501.76-225.075-501.76-501.76s225.075-501.76 501.76-501.76 501.76 225.075 501.76 501.76c0 276.685-225.075 501.76-501.76 501.76zM512 8.909c-242.074 0-439.091 197.018-439.091 439.091s197.018 438.989 439.091 438.989c242.074 0 439.091-196.915 439.091-438.989s-197.018-439.091-439.091-439.091z" />
<glyph unicode="&#xe93b;" glyph-name="check6" d="M941.67 706.048l-496.333-509.030-259.789 270.131 92.979 95.334 168.653-172.954 410.829 421.274c-90.112 85.914-211.763 138.957-346.010 138.957-277.094 0-501.76-224.666-501.76-501.76s224.666-501.76 501.76-501.76c277.094 0 501.76 224.666 501.76 501.76 0 94.413-26.624 182.579-72.090 258.048z" />
<glyph unicode="&#xe93c;" glyph-name="check7" d="M512-53.76c-276.685 0-501.76 225.075-501.76 501.76s225.075 501.76 501.76 501.76c143.667 0 280.883-62.157 376.32-170.598 12.493-14.234 11.776-35.635-1.536-49.050l-345.702-345.702c-6.758-6.758-15.77-10.547-25.293-10.547v0c-9.523 0-18.637 3.789-25.293 10.547l-136.397 136.397-50.688-50.688 212.378-212.378 399.155 399.155c8.397 8.397 20.48 12.186 32.051 9.83 11.674-2.253 21.504-10.138 26.214-21.094 26.931-62.669 40.55-129.229 40.55-197.632 0-276.685-225.075-501.76-501.76-501.76zM512 878.080c-237.158 0-430.080-192.922-430.080-430.080s192.922-430.080 430.080-430.080 430.080 192.922 430.080 430.080c0 40.346-5.53 79.974-16.486 118.17l-384.512-384.512c-6.758-6.758-15.77-10.547-25.293-10.547v0c-9.523 0-18.637 3.789-25.293 10.547l-263.066 263.168c-14.029 14.029-14.029 36.659 0 50.688l101.376 101.376c6.758 6.758 15.77 10.547 25.293 10.547v0c9.523 0 18.637-3.789 25.293-10.547l136.294-136.397 295.629 295.629c-79.974 77.824-187.392 121.958-299.315 121.958z" />
<glyph unicode="&#xe93d;" glyph-name="checked-all" d="M279.194 876.646l-69.755-73.124-36.147 39.506-36.987 39.496-47.053-47.903-47.913-47.913 168.1-168.1 235.325 235.336-47.913 47.913-48.742 47.903-68.915-73.114zM478.382 782.51v-67.236h504.279v134.472h-504.279v-67.236zM279.194 540.457l-69.755-73.124-36.137 39.506-36.987 39.496-47.063-47.903-47.913-47.913 168.1-168.1 235.336 235.336-47.913 47.913-48.742 47.903-68.925-73.114zM478.382 446.321v-67.236h504.279v134.482h-504.279v-67.246zM279.194 204.268l-69.755-73.134-36.137 39.516-36.987 39.496-47.063-47.903-47.913-47.913 168.1-168.1 235.336 235.336-47.913 47.913-48.742 47.903-68.925-73.114zM478.382 110.131v-67.236h504.279v134.472h-504.279v-67.236z" />
<glyph unicode="&#xe93e;" glyph-name="checklist" d="M398.234 888.934h84.378v-42.803h-62.771c-16.794 0-30.413-13.619-30.413-30.413s13.619-30.413 30.413-30.413h186.368c16.794 0 30.413 13.619 30.413 30.413s-13.619 30.413-30.413 30.413h-62.771v42.803h85.299c16.794 0 30.413 13.619 30.413 30.413s-13.619 30.413-30.413 30.413h-230.502c-16.794 0-30.413-13.619-30.413-30.413s13.619-30.413 30.413-30.413zM260.608 581.734c0-16.794 13.619-30.413 30.413-30.413h442.061c16.794 0 30.413 13.619 30.413 30.413s-13.619 30.413-30.413 30.413h-442.163c-16.794 0-30.31-13.619-30.31-30.413zM290.918 386.56h442.061c16.794 0 30.413 13.619 30.413 30.413s-13.619 30.413-30.413 30.413h-442.061c-16.794 0-30.413-13.619-30.413-30.413 0.102-16.794 13.619-30.413 30.413-30.413zM958.362 139.878c0 0-0.41 603.443-0.512 604.979-1.126 17.408-5.427 33.69-12.493 48.435-14.029 31.539-36.454 49.869-55.91 60.416-29.696 16.077-57.958 16.794-61.030 16.794-0.102 0-0.102 0-0.205 0l-53.965 0.41c-16.691 0-30.31-13.517-30.413-30.31s13.517-30.413 30.31-30.515l53.453-0.205c1.536-0.102 18.227-1.024 34.714-10.445 20.275-11.674 31.744-31.13 35.021-59.494 0.205-3.072 0.307-652.39 0.307-652.39 0-44.032-33.997-79.872-75.878-79.872h-272.384v-0.512h-347.136c-41.779 0-75.878 35.84-75.878 79.872 0 0 0.102 649.318 0.307 652.39 3.277 28.365 14.746 47.821 35.021 59.494 16.486 9.421 33.178 10.445 34.714 10.445l53.453 0.102c16.794 0.102 30.31 13.722 30.31 30.515-0.102 16.691-13.619 30.31-30.413 30.31 0 0-0.102 0-0.102 0l-53.76-0.205c-0.102 0-0.102 0-0.205 0-3.072 0-31.334-0.717-61.030-16.794-28.467-15.36-63.59-47.616-68.915-113.766-0.102-1.638-0.102-3.277 0-4.915 0-1.536-0.102-2.97-0.102-4.506v-643.174c0-77.619 61.338-140.698 136.602-140.698l619.418 0.512c75.366 0 136.602 62.566 136.602 140.083 0.102 0.102 0.102 20.070 0.102 53.043zM288.563 224.666h304.128c15.155 0 27.443 12.288 27.443 27.443s-12.288 27.443-27.443 27.443h-304.128c-15.155 0-27.443-12.288-27.443-27.443s12.288-27.443 27.443-27.443zM586.138 67.174c5.325-5.222 12.288-7.885 19.251-7.885s13.824 2.56 19.149 7.782l169.37 165.274c10.854 10.65 11.059 27.955 0.512 38.912-10.65 10.854-27.955 11.059-38.912 0.512l-150.118-146.534-42.496 41.574c-10.854 10.65-28.262 10.445-38.912-0.41s-10.445-28.262 0.41-38.912l61.747-60.314z" />
<glyph unicode="&#xe93f;" glyph-name="clock3" d="M202.24 419.328h88.883v-31.232h-88.883v31.232zM522.445 447.795c8.397 0 16.384-2.048 23.45-5.53 27.443 33.894 57.958 64.307 92.57 90.522 8.499-8.192 16.896-16.384 25.293-24.576-26.010-40.243-55.91-74.547-88.781-104.243 0.717-3.584 1.024-7.168 1.024-10.957 0-30.208-23.962-54.682-53.555-54.682s-53.555 24.474-53.555 54.682c0 11.571 3.584 22.323 9.523 31.13-39.629 54.477-73.421 113.152-100.966 176.128 8.909 5.018 17.92 10.035 26.829 15.155 39.629-54.374 74.24-110.899 102.707-169.984 4.813 1.536 10.035 2.355 15.462 2.355v0zM445.747 745.779l-0.102-93.389 252.518 148.173-252.006 149.197-0.205-95.744c-94.72-14.336-182.17-59.392-250.061-128.717-83.968-85.914-130.867-201.318-130.867-322.662 0-121.446 46.899-236.851 130.97-322.662 84.070-85.914 197.12-133.734 316.006-133.734 118.989 0 231.936 47.821 316.109 133.734 50.074 51.098 87.757 113.766 109.466 182.579l5.12 16.384-100.147 30.31-5.018-15.565c-16.691-52.122-45.363-99.635-83.456-138.342-64.307-65.741-150.938-102.4-242.074-102.4s-177.664 36.659-242.176 102.4c-64.41 65.843-100.352 154.112-100.352 247.296 0 93.082 35.84 181.453 100.352 247.194 48.23 49.254 109.363 82.534 175.923 95.949v0zM850.637 455.066c-3.277 22.426-8.704 44.442-16.179 65.638l-5.53 15.667 97.894 37.274 5.734-15.974c10.957-30.822 18.432-62.771 22.63-95.334l2.355-18.33-104.653-3.891-2.253 14.95zM848.794 338.534c3.891 21.094 5.734 42.598 5.734 64.102 0 2.048 0 4.198-0.102 6.349l-0.205 16.589 104.346 3.891 0.307-17.101c0.102-3.174 0.102-6.349 0.102-9.626 0-30.72-2.97-61.338-9.011-91.341l-3.584-18.022-100.454 30.413 2.867 14.746zM816.333 563.2c-9.216 18.125-19.968 35.43-32.154 51.61l-9.933 13.21 82.227 65.741 10.138-13.517c17.92-23.757 33.485-49.357 46.49-76.288l8.090-16.691-98.202-37.478-6.656 13.414zM764.723 639.181l-10.547 10.65c-15.258 15.565-31.846 29.696-49.664 42.086l-14.746 10.24 65.331 83.866 12.698-9.114c21.504-15.36 41.677-32.666 60.314-51.61 2.15-2.253 4.301-4.506 6.451-6.758l12.698-13.517-82.534-65.843zM512.205 92.262v90.624h30.618v-90.624h-30.618zM736.563 182.784l-62.771 64.102 21.606 22.016 62.771-64.102-21.606-22.016zM290.816 190.259l62.874 64.102 21.606-22.118-62.771-64.102-21.709 22.118zM298.189 645.325l62.771-64.102-21.606-22.118-62.874 64.102 21.709 22.118zM743.834 637.85l-21.606 22.118-62.771-64.205 21.606-22.118 62.771 64.205zM832.512 408.678h-88.883v31.232h88.883v-31.232z" />
<glyph unicode="&#xe940;" glyph-name="close" d="M512 949.76c-276.685 0-501.76-225.075-501.76-501.76s225.075-501.76 501.76-501.76c66.355 0 134.758 14.336 197.734 41.472l-11.571 27.034c-59.392-25.6-123.699-39.014-186.163-39.014-260.506-0.102-472.371 211.763-472.371 472.269s211.866 472.371 472.371 472.371c260.506 0 472.371-211.866 472.371-472.371 0-167.322-77.414-276.48-142.438-338.534-5.018-4.813-10.24-9.626-15.565-14.131l19.354-22.118c5.632 4.915 11.162 9.933 16.486 15.053 97.69 93.286 151.552 221.082 151.552 359.834 0 276.582-225.075 501.658-501.76 501.658zM347.136 242.79l166.912 168.448 165.171-168.55 28.365 26.419-166.707 169.267 166.707 168.243-28.058 26.317-166.502-166.4-168.346 170.803-28.365-24.576 169.779-173.158-169.779-169.779 30.822-27.034z" />
<glyph unicode="&#xe941;" glyph-name="close2" d="M919.245-43.315l-415.846 390.144-401.818-390.144-91.341 89.907 413.491 401.408-413.491 401.408 91.341 89.907 401.92-390.144 415.846 390.144 94.413-89.907-427.827-401.408 427.827-401.408-94.515-89.907z" />
<glyph unicode="&#xe942;" glyph-name="code" d="M703.99 833.7c-3.922-2.15-8.817-6.861-11.172-10.189-11.162-17.039-416.696-721.93-418.458-727.419-2.355-7.834 0.389-19.005 6.861-27.228 8.622-11.172 26.255-13.906 39.578-6.267 7.055 3.922 24.095 32.717 217.856 368.507 115.784 200.417 210.995 367.329 211.589 370.862 1.567 8.028-3.328 21.75-9.595 27.628-9.615 9.001-25.293 10.772-36.659 4.106zM248.494 692.060c-3.133-1.567-57.6-54.661-120.873-117.934-124.6-125.194-119.501-119.122-116.173-137.339 0.983-6.656 14.889-21.156 119.112-125.379 105.595-105.4 118.723-117.934 125.379-119.306 23.122-4.116 43.1 17.050 36.833 38.984-2.15 7.055-16.067 21.944-104.612 110.694l-102.267 102.257 102.267 102.461c110.694 110.694 107.95 107.356 104.223 124.6-3.922 18.801-25.661 29.184-43.889 20.961zM747.284 691.272c-8.428-4.116-13.711-11.172-15.872-20.767-3.523-16.261-5.294-14.111 104.417-124.017l102.277-102.451-102.267-102.267c-88.556-88.75-102.461-103.639-104.612-110.694-6.267-21.944 13.711-43.1 36.833-38.984 6.656 1.372 19.784 13.906 125.379 119.306 104.223 104.223 118.139 118.723 119.112 125.389 3.328 18.217 8.428 12.145-116.173 137.144-63.283 63.478-117.35 116.562-120.289 118.139-7.25 3.707-20.767 3.512-28.805-0.799z" />
<glyph unicode="&#xe943;" glyph-name="comment" d="M228.659 131.789v-142.746c0-7.68 4.198-14.848 11.059-18.432 3.072-1.741 6.554-2.56 9.933-2.56 4.096 0 8.090 1.126 11.571 3.482l64.307 42.496c1.024 0.614 1.946 1.434 2.765 2.15l74.957 49.869c36.762-7.066 73.318-10.65 108.749-10.65 276.685 0 501.76 195.686 501.76 436.122 0 240.538-225.075 436.224-501.76 436.224s-501.76-195.686-501.76-436.224c0-144.384 81.408-278.118 218.419-359.731zM512 885.965c253.542 0 459.878-176.947 459.878-394.342s-206.336-394.24-459.878-394.24c-35.43 0-71.987 3.891-108.851 11.571-5.53 1.126-11.162 0-15.872-3.072l-85.197-56.73c-0.922-0.614-1.843-1.331-2.662-2.048l-28.877-19.046v115.814c0 7.578-4.096 14.541-10.65 18.227-130.048 73.421-207.667 196.608-207.667 329.626-0.102 217.395 206.234 394.24 459.776 394.24zM743.117 405.504c46.694 0 84.582 37.888 84.582 84.48 0 46.694-37.99 84.582-84.582 84.582s-84.48-37.888-84.48-84.582c0-46.49 37.888-84.48 84.48-84.48zM743.117 541.082c28.16 0 51.098-22.938 51.098-51.098s-22.938-50.995-51.098-50.995c-28.058 0-50.995 22.835-50.995 50.995 0 28.262 22.835 51.098 50.995 51.098zM504.525 405.504c46.694 0 84.582 37.888 84.582 84.48 0 46.694-37.99 84.582-84.582 84.582s-84.582-37.888-84.582-84.582c0-46.49 37.99-84.48 84.582-84.48zM504.525 541.082c28.16 0 51.098-22.938 51.098-51.098s-22.938-50.995-51.098-50.995c-28.16 0-50.995 22.835-50.995 50.995 0 28.262 22.835 51.098 50.995 51.098zM265.933 405.504c46.592 0 84.48 37.888 84.48 84.48 0 46.694-37.888 84.582-84.48 84.582-46.694 0-84.582-37.888-84.582-84.582 0-46.49 37.99-84.48 84.582-84.48zM265.933 541.082c28.058 0 50.995-22.938 50.995-51.098s-22.835-50.995-50.995-50.995c-28.16 0-51.098 22.835-51.098 50.995 0 28.262 22.938 51.098 51.098 51.098z" />
<glyph unicode="&#xe944;" glyph-name="config" d="M986.010 543.13l-100.454 50.278c-4.096 2.048-8.397 3.379-12.8 4.198 2.56 3.686 4.506 7.68 5.939 12.083l35.533 106.394c6.042 18.022 1.331 37.888-12.083 51.302l-70.963 70.963c-13.414 13.414-33.28 18.227-51.302 12.186l-106.496-35.533c-4.301-1.434-8.294-3.482-11.981-5.939-0.819 4.403-2.253 8.602-4.301 12.698l-50.176 100.352c-8.397 16.896-25.702 27.648-44.749 27.648h-100.352c-19.046 0-36.352-10.752-44.851-27.75l-50.176-100.352c-2.048-4.096-3.379-8.397-4.198-12.8-3.686 2.56-7.68 4.506-12.083 6.042l-106.394 35.43c-18.022 6.042-37.888 1.331-51.302-12.083l-71.066-70.861c-13.414-13.414-18.227-33.28-12.186-51.405l35.43-106.496c1.434-4.301 3.482-8.294 5.939-12.083-4.403-0.819-8.602-2.253-12.698-4.301l-100.25-50.278c-16.998-8.499-27.648-25.805-27.648-44.851l-0.102-100.147c0-19.046 10.752-36.454 27.75-44.851l100.352-50.278c4.301-2.15 9.011-2.355 13.619-3.174-2.867-3.994-5.222-8.294-6.861-13.107l-35.328-106.394c-5.939-18.022-1.229-37.786 12.083-51.302l70.861-70.963c9.523-9.626 22.426-14.746 35.533-14.746 5.222 0 10.65 0.819 15.872 2.56l106.496 35.533c4.301 1.434 8.294 3.482 11.981 5.939 0.819-4.301 2.253-8.602 4.301-12.595l50.278-100.25c8.499-16.998 25.907-27.75 44.851-27.75l100.147-0.205c19.046 0 36.352 10.752 44.851 27.75l50.278 100.454c2.048 4.096 3.379 8.397 4.301 12.698 3.686-2.458 7.68-4.506 11.981-5.939l106.496-35.43c5.222-1.741 10.547-2.56 15.77-2.56 13.107 0 25.907 5.12 35.533 14.643l70.963 70.861c13.414 13.414 18.125 33.28 12.186 51.302l-35.533 106.496c-1.638 4.813-4.096 9.114-6.963 13.107 4.608 0.819 9.318 1.024 13.619 3.174l100.352 50.176c16.998 8.499 27.75 25.907 27.75 44.851v100.25c0 19.046-10.752 36.454-27.75 45.056v0zM512 247.296c-110.797 0-200.704 89.907-200.704 200.704s89.907 200.704 200.704 200.704 200.704-89.907 200.704-200.704c0-110.899-89.907-200.704-200.704-200.704z" />
<glyph unicode="&#xe945;" glyph-name="confirm" d="M879.923 875.315h-735.846c-73.83 0-133.837-60.006-133.837-133.837v-586.957c0-73.728 60.006-133.837 133.837-133.837h735.949c73.728 0 133.837 60.006 133.837 133.837v586.957c-0.102 73.83-60.109 133.837-133.939 133.837zM979.354 154.522c0-54.784-44.544-99.43-99.43-99.43h-735.846c-54.784 0-99.43 44.544-99.43 99.43v586.957c0 54.784 44.544 99.43 99.43 99.43h735.949c54.784 0 99.43-44.544 99.43-99.43v-586.957zM602.112 199.885c-2.355-2.355-9.011-4.608-15.872-4.301h-1.638c-6.758-0.307-13.722 1.946-16.077 4.301l-100.762 100.762-24.371-24.269 100.864-100.864c10.65-10.65 26.726-14.336 39.219-14.336 0.717 0 1.331 0 2.048 0 12.595-0.41 29.798 3.072 40.96 14.336l229.581 229.683-24.371 24.371-229.581-229.683zM210.637 651.264h425.677v-34.406h-425.677v34.406zM210.842 479.846h313.446v-34.406h-313.446v34.406z" />
<glyph unicode="&#xe946;" glyph-name="contact" d="M909.517 510.669c-18.842 0-34.099-15.258-34.099-34.099v-180.941c0-18.944 15.155-34.304 34.099-34.304 18.842 0 34.099 15.462 34.099 34.304v180.941c0 18.842-15.258 34.099-34.099 34.099zM909.517 195.789c-18.842 0-34.099-15.462-34.099-34.202v-181.043c0-18.944 15.155-34.202 34.099-34.202 18.842 0 34.099 15.258 34.099 34.202v180.941c0 18.944-15.258 34.304-34.099 34.304zM893.030 949.76h-762.266c-53.146 0-96.666-43.52-96.666-96.87v-809.677c0-53.248 43.418-96.768 96.666-96.768h580.301c53.146 0 96.666 43.52 96.666 96.768v445.235c0 53.248 46.387 96.87 94.515 96.87 48.23 0 87.654 43.52 87.654 96.768v170.906c-0.102 53.248-43.622 96.768-96.87 96.768zM921.6 682.189c0-16.384-10.24-28.467-19.456-28.467-85.811 0-162.816-74.035-162.816-165.171v-445.235c0-15.462-13.005-28.365-28.365-28.365h-580.198c-15.462 0-28.365 13.005-28.365 28.365v809.677c0 15.462 13.005 28.467 28.365 28.467h762.368c15.462 0 28.467-13.005 28.467-28.467v-170.803zM592.589 334.541l-76.288 27.443c-5.427 3.277-10.752 6.349-16.179 9.523-3.174 1.946-6.349 3.891-9.216 5.837-0.307 0.205-1.331 0.922-2.56 1.741 31.232 23.859 51.917 66.15 51.917 114.688 0 74.342-48.947 134.758-109.158 134.758s-109.261-60.416-109.261-134.758c0-48.23 20.582-90.419 51.61-114.278-4.915-5.837-9.933-10.342-14.848-14.234-1.638 0.102-3.379 0-4.915-0.717l-84.173-30.106c-17.408-6.349-31.027-25.702-31.027-44.237v-8.806c0-20.173 16.384-36.762 36.659-36.762h312.013c20.275 0 36.762 16.486 36.762 36.762v8.909c-0.205 18.534-13.926 37.99-31.334 44.237z" />
<glyph unicode="&#xe947;" glyph-name="copy" d="M839.68 949.76h-501.76c-50.176 0-94.106-40.755-94.106-94.106v-62.771h-62.771c-50.176 0-94.106-40.755-94.106-94.106v-658.534c0-50.176 40.755-94.106 94.106-94.106h505.037c50.176 0 94.106 40.755 94.106 94.106v62.771h62.771c50.176 0 94.106 40.755 94.106 94.106v658.534c-3.277 50.176-44.032 94.106-97.382 94.106zM714.24 40.346c0-15.667-12.595-31.334-31.334-31.334h-501.76c-15.667 0-31.334 12.493-31.334 31.334v658.534c0 15.667 12.595 31.334 31.334 31.334h504.934c15.667 0 31.334-12.493 31.334-31.334v-658.534h-3.174zM871.117 197.12c0-15.667-12.595-31.334-31.334-31.334h-62.771v533.094c0 50.176-40.755 94.106-94.106 94.106h-376.32v62.771c0 15.667 12.595 31.334 31.334 31.334h504.934c15.667 0 31.334-12.595 31.334-31.334v-658.637h-3.072zM526.131 416.666h-62.771v62.771c0 18.842-12.595 31.334-31.334 31.334-18.842 0-31.334-12.595-31.334-31.334v-62.771h-62.771c-18.842 0-31.334-12.595-31.334-31.334s12.595-31.334 31.334-31.334h62.771v-62.771c0-18.842 12.595-31.334 31.334-31.334 18.842 0 31.334 12.595 31.334 31.334v62.771h62.771c18.842 0 31.334 12.595 31.334 31.334s-12.493 31.334-31.334 31.334z" />
</font>
</defs>
</svg>
